[Login] or [Signup]
Login
Username:
Password:
[Signup]
[Recover Account]


Poll


You must be logged in to view polls



Torrent Details For "Baahubali 2 The Conclusion 720p Esub BluRay 2017 Hindi GOPISAHI"

Baahubali 2 The Conclusion 720p Esub BluRay 2017 Hindi GOPISAHI

Download this torrent | Magnet Download
Health:
Seeds: 0
Leechers: 1
Completed:
Last Checked: 16-11-2018 01:09:28
External Torrent
Update Stats
Download Magnet


Poster
No poster


Watch-Free-HD     Download

Details
Name:Baahubali 2 The Conclusion 720p Esub BluRay 2017 Hindi GOPISAHI
Description:

Video
Format                         : AVC
Codec ID                       : V_MPEG4/ISO/AVC
Duration                       : 2 h 46 min
Bit rate                       : 738 kb/s
Width                          : 1 280 pixels
Height                         : 528 pixels
Display aspect ratio           : 2.40:1
Frame rate mode                : Constant
Frame rate                     : 24.000 FPS
Stream size                    : 879 MiB (88%)
Writing library                : x264 core 146 r2538 121396c

Audio
Format                         : AC-3
Duration                       : 2 h 46 min
Bit rate mode                  : Constant
Bit rate                       : 96.0 kb/s
Channel(s)                     : 6 channels
Channel positions              : Front: L C R, Side: L R, LFE
Sampling rate                  : 44.1 kHz
Frame rate                     : 28.711 FPS (1536 SPF)
Stream size                    : 115 MiB (12%

Text
Language                       : English



Category:Movies > Bollywood
Lang:Hindi
Total Size:995.93 MB
Info Hash:712447f50d2af801788e37593265ef631b271613
Added By:Unknown
Date Added:01-08-2017 23:27:13
Views:684
Hits:223

Download Torrent

Ratings:Not Yet Rated (Log in to rate it)


Tracker:
udp://tracker.coppersurfer.tk:6969/announce


File List: 


Comments

No comments still posted

Powered by 10 Hamsters v2-svn -|- Page Generated In 0.038618 secs.
-|- RSS FEED
Theme By: Nikkbu