[Login] or [Signup]
Login
Username:
Password:
[Signup]
[Recover Account]


Poll


You must be logged in to view polls



Torrent Details For "Har Har Byomkesh (2015) Bengali Movie DVDRip x264 AAC ESub { TaRa }.mkv"

Har Har Byomkesh (2015) Bengali Movie DVDRip x264 AAC ESub { TaRa }.mkv

Download this torrent | Magnet Download
Health:
Seeds: 0
Leechers: 4
Completed: 19 
Last Checked: 28-10-2018 09:00:39
External Torrent
Update Stats
Download Magnet


Poster


iMDB
Imdb Picture Title: Har Har Byomkesh
Year: 2015
Runtime: 113 minutes
Votes: 402
Rating: 6.7/10
Language: Bengali
Country: India
All Genres: Action, Thriller
Plot Outline: Famed detective Byomkesh Bakshi investigates the murder of a man who had just thrown a party to celebrate his recovery from a long illness.
Director: Arindam Sil
Writing By: Saradindu Bandopaddhyay,Padmanabha Dasgupta,Arindam Sil,
Produced By: Gurjeet Singh Arora,Subhen Kumar Das,Rahul Mohta,Shrikant Mohta,Vishnu Mohta,Ravi Sharma,Mahendra Soni,
Music: Bickram Ghosh
Plot:

In Benaras, Ratikant Choudhury invites them to a party thrown by zamindar Dipnarayan Singh at his residence to celebrate his recovery after a prolonged illness. But the very next day , Dipnarayan dies under suspicious circumstances. Byomkesh takes the responsibility of investigating his murder. He is clear about two motives -money and an illicit relationship. The list of suspects grows, even as Byomkesh discovers the painting skills of Dipnarayan's wife, Shakuntala , through a portrait of Dushyanta and Shakuntala drawn by her.The painting haunts him, though he fails to understand why . Then he comes to know about Dipnarayan being bed-ridden for long and Shakuntala's pregnancy . Here comes the twist -a mysterious love affair. "Who is the lover of Shakuntala and the murderer of Dipnarayan? Through a spine-chilling series of events, the mystery unveils at the end.

- Written by Arijit Upadhyay

Har Har Byomkesh is a Bengali mystery thriller film directed by Arindam Sil[1] and produced jointly by Mahendra Soni, Shrikant Mohta and Nispal Singh Rane on Shree Venkatesh Films and Surinder Films banner respectively. The film is based on the fictional detective, Byomkesh Bakshi, created by the Bengali writer Sharadindu Bandyopadhyay. The film stars Abir Chatterjee as the eponimous sleuth, while Ritwick Chakraborty will enact the role of his assistant Ajit Bandopadhyay and Sohini Sarkar will helm in the shoes of Satyabati.[2][3] The teaser of the film was released on October 11, 2015.[4] The trailer was launched on October 15, 2015. [5]The film was released on 18 December 2015. Plot by A.Shontu.

- Written by A.Shontu

Famed detective Byomkesh Bakshi investigates the murder of a man who had just thrown a party to celebrate his recovery from a long illness.

- Written by Kiran Mascarenhas
Cast:
Abir Chatterjee as Byomkesh Bakshi
Ritwick Chakraborty as Ajit Bandopadhyay
Sohini Sarkar as Satyabati
Nusrat Jahan as Shakuntala
Harsh Chhaya as D. S. P. Purandar Pandey
Shadab Kamal as Inspector Ratikanta Chowdhury
Subrat Dutta as Narmadashankar
Dipankar Dey as Dr. Pannalal Palit
Soumyajit Majumdar as
Pradip Rai as


Watch-Free-HD     Download

Details
Name:Har Har Byomkesh (2015) Bengali Movie DVDRip x264 AAC ESub { TaRa }.mkv
Description:

Quote:

Har Har Byomkesh (2015) Bengali Movie DVDRip x264  AAC ESub { TaRa }.mkv


===================================================================
General
Complete name               : Har Har Byomkesh (2015) Bengali Movie DVDRip x264  AAC ESub { TaRa }.mkv
Format                      : Matroska
Format version              : Version 4 / Version 2
File size                   : 751 MiB
Duration                    : 1 h 53 min
Overall bit rate            : 927 kb/s
===================================================================
Video
ID                          : 1
Format                      : AVC
Format/Info                 : Advanced Video Codec
Format profile              : [email protected]
Format settings, CABAC      : Yes
Format settings, ReFrames   : 6 frames
Codec ID                    : V_MPEG4/ISO/AVC
Duration                    : 1 h 53 min
Bit rate                    : 734 kb/s
Width                       : 720 pixels
Height                      : 304 pixels
Display aspect ratio        : 2.35:1
Frame rate mode             : Constant
Frame rate                  : 23.976 (24000/1001) FPS
Color space                 : YUV
Chroma subsampling          : 4:2:0
Bit depth                   : 8 bits
Scan type                   : Progressive
Bits/(Pixel*Frame)          : 0.140
Stream size                 : 594 MiB (79%)
Title                       : ....::::: TaRa :::::.....
Language                    : Bengali
Default                     : Yes
===================================================================
Audio
ID                          : 2
Format                      : AAC
Format/Info                 : Advanced Audio Codec
Format profile              : LC
Codec ID                    : A_AAC
Duration                    : 1 h 53 min
Bit rate                    : 192 kb/s
Channel(s)                  : 2 channels
Channel positions           : Front: L R
Sampling rate               : 44.1 kHz
Frame rate                  : 43.066 FPS (1024 spf)
Compression mode            : Lossy
Stream size                 : 153 MiB (20%)
Title                       : ....::::: TaRa :::::.....
Language                    : Bengali
Default                     : Yes
Forced                      : No
===================================================================
Text
ID                          : 3
Format                      : VobSub
Muxing mode                 : zlib
Codec ID                    : S_VOBSUB
Codec ID/Info               : Picture based subtitle format used on DVDs
Duration                    : 1 h 47 min
Bit rate                    : 1 897 b/s
Count of elements           : 1354
Stream size                 : 1.46 MiB (0%)
Title                       : ....::::: TaRa :::::.....
Language                    : English
Default                     : Yes
Forced                      : No
===================================================================




                                           











 

Category:Movies > Bengali
Lang:Bengali  Bengali
Total Size:750.76 MB
Info Hash:a94ee12ba8024bb724d59053ab971f68783e3c81
Added By:SkTaRa
Date Added:29-04-2017 15:21:02
Views:690
Hits:148

Download Torrent

Ratings:Not Yet Rated (Log in to rate it)

  


Tracker:
UDP://TRACKER.LEECHERS-PARADISE.ORG:6969/ANNOUNCE

This Torrent also has backup trackers
URLSeedersLeechersCompleted
http://tracker.dler.org:6969/announce000
http://ipv4.tracker.harry.lu:80/announce200


File List: 


Comments

No comments still posted

Powered by 10 Hamsters v2-svn -|- Page Generated In 4.651082 secs.
-|- RSS FEED
Theme By: Nikkbu