[Login] or [Signup]
Login
Username:
Password:
[Signup]
[Recover Account]


Poll


You must be logged in to view polls



Torrent Details For "Ghost in the Shell (2017) 3D HOU 1080p BDRip (ENG Audio ) YEN"

Ghost in the Shell (2017) 3D HOU 1080p BDRip (ENG Audio ) YEN

Download this torrent | Magnet Download
Health:
Seeds: 0
Leechers: 4
Completed: 20,833 
Last Checked: 07-11-2018 09:33:50
External Torrent
Update Stats
Download Magnet


Poster


iMDB
Imdb Picture Title: Ghost in the Shell
Year: 2017
Runtime: 107 minutes
Votes: 50151
Rating: 6.8/10
Language: English, Japanese
Country: USA, India, China, Japan, Hong Kong, UK, New Zealand, Canada, Australia
All Genres: Action, Crime, Drama, Mystery, Sci-Fi, Thriller
Plot Outline: In the near future, Major is the first of her kind: A human saved from a terrible crash, who is cyber-enhanced to be a perfect soldier devoted to stopping the world's most dangerous criminals.
Director: Rupert Sanders
Writing By: Shirow Masamune,Jamie Moss,William Wheeler,Ehren Kruger,
Produced By: Ray Angelic,Ari Arad,Avi Arad,Holly Bario,Michael Costigan,Jane Evans,Tetsuya Fujimura,Mitsuhisa Ishikawa,Yoshinobu Noma,Steven Paul,Jeffrey Silver,Maki Terashima-Furuta,
Music: Lorne Balfe Clint Mansell
Plot:

In the near future, Major Motoko Kusanagi (Scarlett Johansson) is the first of her kind: A human saved from a terrible terrorist attack, who is cyber-enhanced to be a perfect soldier devoted to stopping the world's most dangerous criminals. When terrorism reaches a new level that includes the ability to hack into people's minds and control them, Major Kusanagi is uniquely qualified to stop it. As she prepares to face a new enemy, Major Kusanagi discovers that she has been lied to: her life was not saved, it was stolen. She will stop at nothing to recover her past, find out who did this to her and stop them before they do it to others. Based on the internationally acclaimed Japanese Manga, "The Ghost in the Shell."

- Written by Paramount Pictures

In the near future, Major is the first of her kind: A human saved from a terrible crash, who is cyber-enhanced to be a perfect soldier devoted to stopping the world's most dangerous criminals.

- Written by Paramount Pictures
Cast:
Scarlett Johansson as Major
Pilou Asbæk as Batou
Takeshi Kitano as Aramaki
Juliette Binoche as Dr. Ouelet
Michael Pitt as Kuze
Chin Han as Togusa
Danusia Samal as Ladriya
Lasarus Ratuere as Ishikawa
Yutaka Izumihara as Saito
Tawanda Manyimo as Borma
Trailers:
New International Trailer
In Theaters March 31
New Trailer
Trailer
Teaser Trailer


Watch-Free-HD     Download

Details
Name:Ghost in the Shell (2017) 3D HOU 1080p BDRip (ENG Audio ) YEN
Description:
 

General
Unique ID                   : 174331753937724381911342181102440521531 (0x8327131385728C7488E9048010CD9F3B)
Complete name               :Ghost in the Shell (2017) 3D HOU 1080p BDRip (ENG Audio )_YEN.mkv
Format                      : Matroska
Format version              : Version 4 / Version 2
File size                   : 6.11 GiB
Duration                    : 1 h 46 min
Overall bit rate            : 8 177 kb/s
Movie name                  : Source BLUEBIRD
Encoded date                : UTC 2017-07-26 10:18:53

Video
ID                          : 1
Format                      : AVC
Format/Info                 : Advanced Video Codec
Format profile              : [email protected]
Format settings, CABAC      : Yes
Format settings, ReFrames   : 4 frames
Codec ID                    : V_MPEG4/ISO/AVC
Duration                    : 1 h 46 min
Bit rate                    : 7 535 kb/s
Width                       : 1 920 pixels
Height                      : 1 080 pixels
Display aspect ratio        : 16:9
Frame rate mode             : Constant
Frame rate                  : 23.976 (24000/1001) FPS
Color space                 : YUV
Chroma subsampling          : 4:2:0
Bit depth                   : 8 bits
Scan type                   : Progressive
Bits/(Pixel*Frame)          : 0.152
Stream size                 : 5.63 GiB (92%)
Title                       : YEN

Audio
ID                          : 2
Format                      : AC-3
Format/Info                 : Audio Coding 3
Format settings, Endianness : Big
Codec ID                    : A_AC3
Duration                    : 1 h 46 min
Bit rate mode               : Constant
Bit rate                    : 640 kb/s
Channel(s)                  : 6 channels
Channel positions           : Front: L C R, Side: L R, LFE
Sampling rate               : 48.0 kHz
Frame rate                  : 31.250 FPS (1536 spf)
Bit depth                   : 16 bits
Compression mode            : Lossy
Stream size                 : 490 MiB (8%)
Title                       : YEN
Language                    : English
Service kind                : Complete Main
Default                     : No
Forced                      : No

Text
ID                          : 3
Format                      : UTF-8
Codec ID                    : S_TEXT/UTF8
Codec ID/Info               : UTF-8 Plain Text
Duration                    : 1 h 34 min
Bit rate                    : 35 b/s
Count of elements           : 881
Stream size                 : 24.6 KiB (0%)
Title                       : full
Language                    : English
Default                     : No
Forced                      : No

Menu
00:00:00.000                : en:Chapter 01
00:08:09.322                : en:Chapter 02
00:14:39.962                : en:Chapter 03
00:21:26.493                : en:Chapter 04
00:28:02.681                : en:Chapter 05
00:34:13.217                : en:Chapter 06
00:39:27.615                : en:Chapter 07
00:43:57.801                : en:Chapter 08
00:51:49.815                : en:Chapter 09
00:55:19.065                : en:Chapter 10
01:01:06.871                : en:Chapter 11
01:07:49.732                : en:Chapter 12
01:14:36.972                : en:Chapter 13
01:20:31.743                : en:Chapter 14
01:27:46.177                : en:Chapter 15
01:33:41.407                : en:Chapter 16
01:38:00.082                : en:Chapter 17

********************** Screenhots******************************

 

 

 

 

 

********* SEEDING IS AS FAST AS POSSIBLE- PLEASE SEED AS MUCH AS POSSIBLE****
Category:Movies > 3D
Lang:English  English
Total Size:6.21 GB
Info Hash:7b9ac5b3c99caf318fd01e2002b6b900eb45a515
Added By:Unknown
Date Added:27-07-2017 05:50:15
Views:701
Hits:112

Download Torrent

Ratings:Not Yet Rated (Log in to rate it)


Tracker:
udp://tracker.coppersurfer.tk:6969/announce


File List: 


Comments

<< Previous      Next >>
1 - 1

[Report] Posted: 27-07-2017 at 06:00:20
Bigban



Uploaded: 0.00 B
Downloaded: 0.00 B
Ratio: ---

Nice Share Bhai All Perfect

1 - 1
<< Previous      Next >>


Powered by 10 Hamsters v2-svn -|- Page Generated In 1.063049 secs.
-|- RSS FEED
Theme By: Nikkbu