[Login] or [Signup]
Login
Username:
Password:
[Signup]
[Recover Account]


Poll


You must be logged in to view polls



Torrent Details For "Sleight.2016.1080p.BluRay.REMUX.AVC.DTS-HD.MA.5.1-FGT"

Sleight.2016.1080p.BluRay.REMUX.AVC.DTS-HD.MA.5.1-FGT

Download this torrent | Magnet Download
Health:
Seeds: 0
Leechers: 10
Completed:
Last Checked: 20-10-2018 09:51:33
External Torrent
Update Stats
Download Magnet


Poster
No poster


iMDB
Imdb Picture Title: Sleight
Year: 2016
Runtime: 89 minutes
Votes: 804
Rating: 6.0/10
Language: English
Country: USA
All Genres: Action, Drama, Sci-Fi, Thriller
Plot Outline: A young street magician (Jacob Latimore) is left to care for his little sister after their parents passing, and turns to illegal activities to keep a roof over their heads. When he gets in ...
Tagline: You can change the cards you're dealt.
Director: J.D. Dillard
Writing By: J.D. Dillard,Alex Theurer,
Produced By: Jaremy Aiello,Jason Blum,Shaul Dina,Justin Farajzadeh,Eric B. Fleischman,Keith R. Fowler,Maritte Lee Go,Michael J. Luisi,Moana Sherrill,Sean Tabibian,Alex Theurer,Cyrus Zahabian,Ilana Zahabian,
Music: Charles Scott IV
Plot:

A young street magician (Jacob Latimore) is left to care for his little sister after their parents passing, and turns to illegal activities to keep a roof over their heads. When he gets in too deep, his sister is kidnapped, and he is forced to use his magic and brilliant mind to save her.

- Written by Blumhouse
Cast:
Jacob Latimore as Bo
Seychelle Gabriel as Holly
Dulé Hill as Angelo
Storm Reid as Tina
Sasheer Zamata as Georgi
Michael Villar as Packy
Brandon Johnson as Ramone
Cameron Esposito as Luna
Andrew Fitzpatrick as Seth
Jay Walker as Blake
Trailers:
Teaser Trailer
Official Trailer


Watch-Free-HD     Download

Details
Name:Sleight.2016.1080p.BluRay.REMUX.AVC.DTS-HD.MA.5.1-FGT
Description:
MediaInfo

Video
ID                                       : 1
Format                                   : AVC
Format/Info                              : Advanced Video Codec
Format profile                           : [email protected]
Format settings, CABAC                   : Yes
Format settings, ReFrames                : 4 frames
Codec ID                                 : V_MPEG4/ISO/AVC
Duration                                 : 1 h 29 min
Bit rate mode                            : Variable
Maximum bit rate                         : 37.0 Mb/s
Width                                    : 1 920 pixels
Height                                   : 1 080 pixels
Display aspect ratio                     : 16:9
Frame rate mode                          : Constant
Frame rate                               : 23.976 (24000/1001) FPS
Color space                              : YUV
Chroma subsampling                       : 4:2:0
Bit depth                                : 8 bits
Scan type                                : Progressive
Title                                    : Sleight.2016.1080p.BluRay.REMUX.AVC.DTS-HD.MA.5.1-FGT
Language                                 : English
Default                                  : No
Forced                                   : No

Audio #1
ID                                       : 2
Format                                   : DTS
Format/Info                              : Digital Theater Systems
Format profile                           : MA / Core
Mode                                     : 16
Format settings, Endianness              : Big
Codec ID                                 : A_DTS
Duration                                 : 1 h 29 min
Bit rate mode                            : Variable / Constant
Bit rate                                 : Unknown / 1 509 kb/s
Channel(s)                               : 6 channels
Channel positions                        : Front: L C R, Side: L R, LFE
Sampling rate                            : 48.0 kHz
Frame rate                               : 93.750 FPS (512 spf)
Bit depth                                : 24 bits
Compression mode                         : Lossless / Lossy
Title                                    : Sleight.2016.1080p.BluRay.REMUX.AVC.DTS-HD.MA.5.1-FGT
Language                                 : English
Default                                  : Yes
Forced                                   : No

Audio #2
ID                                       : 3
Format                                   : DTS
Format/Info                              : Digital Theater Systems
Mode                                     : 16
Format settings, Endianness              : Big
Codec ID                                 : A_DTS
Duration                                 : 1 h 29 min
Bit rate mode                            : Constant
Bit rate                                 : 1 509 kb/s
Channel(s)                               : 6 channels
Channel positions                        : Front: L C R, Side: L R, LFE
Sampling rate                            : 48.0 kHz
Frame rate                               : 93.750 FPS (512 spf)
Bit depth                                : 24 bits
Compression mode                         : Lossy
Stream size                              : 964 MiB (4%)
Title                                    : Sleight.2016.1080p.BluRay.REMUX.AVC.DTS-HD.MA.5.1-FGT
Language                                 : English
Default                                  : No
Forced                                   : No

Audio #3
ID                                       : 4
Format                                   : AC-3
Format/Info                              : Audio Coding 3
Mode                                     : Dolby Digital
Format settings, Endianness              : Big
Codec ID                                 : A_AC3
Duration                                 : 1 h 29 min
Bit rate mode                            : Constant
Bit rate                                 : 192 kb/s
Channel(s)                               : 2 channels
Channel positions                        : Front: L R
Sampling rate                            : 48.0 kHz
Frame rate                               : 31.250 FPS (1536 spf)
Bit depth                                : 16 bits
Compression mode                         : Lossy
Stream size                              : 123 MiB (0%)
Title                                    : Sleight.2016.1080p.BluRay.REMUX.AVC.DTS-HD.MA.5.1-FGT
Language                                 : English
Service kind                             : Complete Main
Default                                  : No
Forced                                   : No

Text #1
ID                                       : 5
Format                                   : PGS
Muxing mode                              : zlib
Codec ID                                 : S_HDMV/PGS
Codec ID/Info                            : Picture based subtitle format used on BDs/HD-DVDs
Title                                    : English-PGS
Language                                 : English
Default                                  : Yes
Forced                                   : No

Text #2
ID                                       : 6
Format                                   : PGS
Muxing mode                              : zlib
Codec ID                                 : S_HDMV/PGS
Codec ID/Info                            : Picture based subtitle format used on BDs/HD-DVDs
Title                                    : Spanish-PGS
Language                                 : Spanish
Default                                  : No
Forced                                   : No

Menu
00:00:00.000                             : en:Chapter 01
00:05:06.055                             : en:Chapter 02
00:11:20.846                             : en:Chapter 03
00:14:06.011                             : en:Chapter 04
00:18:15.469                             : en:Chapter 05
00:24:13.410                             : en:Chapter 06
00:28:46.933                             : en:Chapter 07
00:34:23.728                             : en:Chapter 08
00:38:57.168                             : en:Chapter 09
00:43:32.818                             : en:Chapter 10
00:49:00.520                             : en:Chapter 11
00:51:59.282                             : en:Chapter 12
00:53:57.484                             : en:Chapter 13
00:59:05.750                             : en:Chapter 14
01:05:31.928                             : en:Chapter 15
01:09:55.274                             : en:Chapter 16
01:13:27.111                             : en:Chapter 17
01:15:21.391                             : en:Chapter 18
01:22:06.630                             : en:Chapter 19
01:24:43.995                             : en:Chapter 20

Category:Movies > Remux
Lang:English  English
Total Size:24.34 GB
Info Hash:bd28540da057bb5e6eed55de090643296293222c
Added By:Unknown
Date Added:21-07-2017 10:55:12
Views:352
Hits:51

Download Torrent

Ratings:Not Yet Rated (Log in to rate it)


Tracker:
http://tracker.trackerfix.com:80/announce


File List: 


Comments

No comments still posted

Powered by 10 Hamsters v2-svn -|- Page Generated In 0.070373 secs.
-|- RSS FEED
Theme By: Nikkbu