[Login] or [Signup]
Login
Username:
Password:
[Signup]
[Recover Account]


Poll


You must be logged in to view polls



Torrent Details For "Mohabbat Ke Dushman (2017) Hindi Dubbed 1080p WebHDRip x264 AAC { TaRa }.mkv"

Mohabbat Ke Dushman (2017) Hindi Dubbed 1080p WebHDRip x264 AAC { TaRa }.mkv

Download this torrent | Magnet Download
Health:
Seeds: 0
Leechers: 0
Completed:
Last Checked: 17-11-2018 05:42:39
External Torrent
Update Stats
Download Magnet


Poster


Watch-Free-HD     Download

Details
Name:Mohabbat Ke Dushman (2017) Hindi Dubbed 1080p WebHDRip x264 AAC { TaRa }.mkv
Description:

Quote:

Mohabbat Ke Dushman (2017) Hindi Dubbed 1080p WebHDRip x264 AAC { TaRa }.mkv


===================================================================
General
Complete name               : Mohabbat Ke Dushman (2017) Hindi Dubbed 1080p WebHDRip x264 AAC { TaRa }.mkv
Format                      : Matroska
Format version              : Version 4 / Version 2
File size                   : 1.54 GiB
Duration                    : 2 h 15 min
Overall bit rate mode       : Variable
Overall bit rate            : 1 620 kb/s
===================================================================
Video
ID                          : 1
Format                      : AVC
Format/Info                 : Advanced Video Codec
Format profile              : [email protected]
Format settings, CABAC      : Yes
Format settings, ReFrames   : 3 frames
Codec ID                    : V_MPEG4/ISO/AVC
Duration                    : 2 h 15 min
Bit rate mode               : Variable
Bit rate                    : 1 500 kb/s
Width                       : 1 920 pixels
Height                      : 816 pixels
Display aspect ratio        : 2.35:1
Frame rate mode             : Constant
Frame rate                  : 25.000 FPS
Color space                 : YUV
Chroma subsampling          : 4:2:0
Bit depth                   : 8 bits
Scan type                   : Progressive
Bits/(Pixel*Frame)          : 0.038
Stream size                 : 1.42 GiB (92%)
Title                       : .....::::: TaRa :::::.....
Language                    : Hindi
Default                     : Yes
Forced                      : No
===================================================================
Audio
ID                          : 2
Format                      : AAC
Format/Info                 : Advanced Audio Codec
Format profile              : LC
Codec ID                    : A_AAC
Duration                    : 2 h 15 min
Bit rate                    : 126 kb/s
Channel(s)                  : 2 channels
Channel positions           : Front: L R
Sampling rate               : 44.1 kHz
Frame rate                  : 43.066 FPS (1024 spf)
Compression mode            : Lossy
Stream size                 : 122 MiB (8%)
Title                       : .....::::: TaRa :::::.....
Language                    : Hindi
Default                     : Yes
Forced                      : No
===================================================================




                             










Category:Movies > South Dub
Lang:Hindi
Total Size:1.54 GB
Info Hash:3719ab1a154217416cef142f44bdf9e2846d440a
Added By:SkTaRa
Date Added:26-04-2017 12:40:22
Views:1,105
Hits:163

Download Torrent

Ratings:Not Yet Rated (Log in to rate it)

  


Tracker:
udp://tracker.ccc.de:80/announce

This Torrent also has backup trackers
URLSeedersLeechersCompleted
http://tracker.dler.org:6969/announce020
http://ipv4.tracker.harry.lu:80/announce020
http://explodie.org:6969/announce010


File List: 


Comments

No comments still posted

Powered by 10 Hamsters v2-svn -|- Page Generated In 4.314522 secs.
-|- RSS FEED
Theme By: Nikkbu