[Login] or [Signup]
Login
Username:
Password:
[Signup]
[Recover Account]


Poll


You must be logged in to view polls



Torrent Details For "The.Science.of.Sleep.2006.1080p.BluRay.x264-HD4U"

The.Science.of.Sleep.2006.1080p.BluRay.x264-HD4U

Download this torrent | Magnet Download
Health:
Seeds: 1
Leechers: 3
Completed: 79 
Last Checked: 16-11-2018 14:17:48
External Torrent
Update Stats
Download Magnet


Poster


iMDB
Imdb Picture Original Title: La science des rêves
Title: The Science of Sleep
Year: 2006
Runtime: 105 minutes
Votes: 63284
Rating: 7.3/10
Language: French, English, Spanish
Country: France, Italy
All Genres: Comedy, Drama, Fantasy, Romance
Plot Outline: A man entranced by his dreams and imagination is love-struck with a French woman and feels he can show her his world.
Tagline: Close your eyes. Open your heart.
Director: Michel Gondry
Writing By: Michel Gondry,
Produced By: Georges Bermann,Michel Gondry,Frédéric Junqua,Inigo Lezzi,
Music: Jean-Michel Bernard
Plot:

Following the death of his father in Mexico, Stéphane Miroux, a shy insecure young man, agrees to come to Paris to draw closer to his widowed mother Christine. He lands a boring job at a calendar-making firm and falls in love with his charming neighbor Stéphanie. But conquering her is no bed of roses for the young man and the only solution he finds to put up with the difficulties he is going through is escape into a dream world...

- Written by Guy Bellinger

A man entranced by his dreams and imagination is love-struck with a French woman and feels he can show her his world.

- Written by H. Nelson
Cast:
Gael García Bernal as Stéphane Miroux
Charlotte Gainsbourg as Stéphanie
Alain Chabat as Guy
Miou-Miou as Christine Miroux
Pierre Vaneck as Monsieur Pouchet
Emma de Caunes as Zoé
Aurélia Petit as Martine
Sacha Bourdo as Serge
Stéphane Metzger as Sylvain
Alain de Moyencourt as Gérard


Watch-Free-HD     Download

Details
Name:The.Science.of.Sleep.2006.1080p.BluRay.x264-HD4U
Description:
Video
ID                                       : 1
Format                                   : AVC
Format/Info                              : Advanced Video Codec
Format profile                           : [email protected]
Format settings, CABAC                   : Yes
Format settings, ReFrames                : 4 frames
Codec ID                                 : V_MPEG4/ISO/AVC
Duration                                 : 1 h 46 min
Bit rate                                 : 11.8 Mb/s
Width                                    : 1 920 pixels
Height                                   : 1 032 pixels
Display aspect ratio                     : 1.85:1
Frame rate mode                          : Constant
Frame rate                               : 23.976 (24000/1001) FPS

Audio
ID                                       : 2
Format                                   : DTS
Format/Info                              : Digital Theater Systems
Mode                                     : 16
Format settings, Endianness              : Big
Codec ID                                 : A_DTS
Duration                                 : 1 h 46 min
Bit rate mode                            : Constant
Bit rate                                 : 1 509 kb/s
Channel(s)                               : 6 channels
Channel positions                        : Front: L C R, Side: L R, LFE
Sampling rate                            : 48.0 kHz
Frame rate                               : 93.750 FPS (512 spf)
Bit depth                                : 24 bits
Compression mode                         : Lossy
Stream size                              : 1.12 GiB (11%)
Language                                 : English
Default                                  : Yes
Forced                                   : No

Text #1
ID                                       : 3
Format                                   : UTF-8
Codec ID                                 : S_TEXT/UTF8
Codec ID/Info                            : UTF-8 Plain Text
Duration                                 : 1 h 34 min
Bit rate                                 : 14 b/s
Count of elements                        : 413
Stream size                              : 10.2 KiB (0%)
Title                                    : Forced
Language                                 : English







Category:Movies > 1080P Bluray
Lang:English  English
Total Size:9.83 GB
Info Hash:834e276e3a81226b5382b8908b814b50a655656c
Added By:SULTAN
Date Added:13-07-2017 19:38:06
Views:93
Hits:92

Download Torrent

Ratings:Not Yet Rated (Log in to rate it)


Tracker:
http://tracker.trackerfix.com:80/announce


File List: 


Comments

No comments still posted

Powered by 10 Hamsters v2-svn -|- Page Generated In 0.611623 secs.
-|- RSS FEED
Theme By: Nikkbu