[Login] or [Signup]
Login
Username:
Password:
[Signup]
[Recover Account]


Poll


You must be logged in to view polls



Torrent Details For "Fierce.People.2005.1080p.WEBRip.DD5.1.x264-monkee"

Fierce.People.2005.1080p.WEBRip.DD5.1.x264-monkee

Download this torrent | Magnet Download
Health:
Seeds: 0
Leechers: 6
Completed:
Last Checked: 17-11-2018 17:37:08
External Torrent
Update Stats
Download Magnet


Poster


iMDB
Imdb Picture Title: Fierce People
Year: 2005
Runtime: 107 minutes
Votes: 5706
Rating: 6.6/10
Language: English, Tagalog
Country: USA, Canada
All Genres: Drama, Thriller
Plot Outline: A massage therapist looking to overcome her addictions and reconnect with her son, whose father is an anthropologist in South America studying the Yanomani people, moves in with a wealthy ex-client in New Jersey.
Tagline: Once you become one of them, it changes you forever.
Director: Griffin Dunne
Writing By: Dirk Wittenborn,Dirk Wittenborn,
Produced By: Keith Addis,Griffin Dunne,Ogden Gavanski,Nick Wechsler,Dirk Wittenborn,Michael Paseornek,
Music: Paul Bakija Nick Laird-Clowes
Plot:

Trapped in his mother's Lower East Side apartment, sixteen-year-old Finn wants nothing more than to escape New York and spend the summer in South America studying the Iskanani Indians, or "Fierce People," with the anthropologist father he's never met. But Finn's dreams are shattered when he is arrested in a desperate effort to help his drug-dependent mother, Liz, who scrapes by working as a masseuse. Determined to get their lives back on track, Liz moves the two of them into a guest house on the vast country estate of her ex-client, the aging aristocratic billionaire, Ogden C. Osbourne. In Osbourne's close world of privilege and power, Finn and Liz encounter a tribe fiercer and more mysterious than anything they might find in the South American jungle: the super rich. While Liz battles her substance abuse and struggles to win back her son's love and trust, Finn falls in love with Osbourne's beautiful granddaughter, Maya, befriends her charismatic older brother, Bryce, and even wins the favor of Osbourne himself. But when a shocking act of violence shatters Finn's ascension within the Osbourne clan, the golden promises of this lush world quickly sour. And both Finn and Liz, caught in a harrowing struggle for their dignity, discover that membership always comes at a price...

- Written by Zoey

A massage therapist looking to overcome her addictions and reconnect with her son, whose father is an anthropologist in South America studying the Yanomani people, moves in with a wealthy ex-client in New Jersey.

- Written by Anonymous
Cast:
Diane Lane as Liz Earl
Anton Yelchin as Finn Earl
Donald Sutherland as Ogden C. Osborne
Chris Evans as Bryce
Kristen Stewart as Maya
Paz de la Huerta as Jilly
Blu Mankuma as Gates
Elizabeth Perkins as Mrs. Langley
Christopher Shyer as Dr. Leffler
Garry Chalk as McCallum


Watch-Free-HD     Download

Details
Name:Fierce.People.2005.1080p.WEBRip.DD5.1.x264-monkee
Description:
Video
ID                                       : 1
Format                                   : AVC
Format/Info                              : Advanced Video Codec
Format profile                           : [email protected]
Format settings, CABAC                   : Yes
Format settings, ReFrames                : 4 frames
Codec ID                                 : V_MPEG4/ISO/AVC
Duration                                 : 1 h 52 min
Bit rate mode                            : Variable
Bit rate                                 : 11.3 Mb/s
Maximum bit rate                         : 15.0 Mb/s
Width                                    : 1 920 pixels
Height                                   : 1 080 pixels
Display aspect ratio                     : 16:9
Frame rate mode                          : Constant
Frame rate                               : 23.976 (24000/1001) FPS
Color space                              : YUV
Chroma subsampling                       : 4:2:0
Bit depth                                : 8 bits
Scan type                                : Progressive
Bits/(Pixel*Frame)                       : 0.227
Stream size                              : 8.84 GiB (95%)
Default                                  : Yes
Forced                                   : No
Color range                              : Limited
Color primaries                          : BT.709
Transfer characteristics                 : BT.709
Matrix coefficients                      : BT.709

Audio
ID                                       : 2
Format                                   : E-AC-3
Format/Info                              : Enhanced Audio Coding 3
Format settings, Endianness              : Big
Codec ID                                 : A_EAC3
Duration                                 : 1 h 52 min
Bit rate mode                            : Constant
Bit rate                                 : 640 kb/s
Channel(s)                               : 6 channels
Channel positions                        : Front: L C R, Side: L R, LFE
Sampling rate                            : 48.0 kHz
Frame rate                               : 187.500 FPS (256 spf)
Compression mode                         : Lossy
Stream size                              : 513 MiB (5%)
Language                                 : English
Service kind                             : Complete Main
Default                                  : Yes
Forced                                   : No

Text
ID                                       : 3
Format                                   : UTF-8
Codec ID                                 : S_TEXT/UTF8
Codec ID/Info                            : UTF-8 Plain Text
Duration                                 : 1 h 46 min
Bit rate                                 : 55 b/s
Count of elements                        : 1630
Stream size                              : 43.0 KiB (0%)
Language                                 : English







Category:Movies > HDRips
Lang:English  English
Total Size:9.35 GB
Info Hash:4605074e2d8d9db67a062da3f460df9bd4462991
Added By:SULTAN
Date Added:13-07-2017 18:18:29
Views:113
Hits:50

Download Torrent

Ratings:Not Yet Rated (Log in to rate it)


Tracker:
http://tracker.trackerfix.com:80/announce


File List: 


Comments

No comments still posted

Powered by 10 Hamsters v2-svn -|- Page Generated In 1.590801 secs.
-|- RSS FEED
Theme By: Nikkbu