[Login] or [Signup]
Login
Username:
Password:
[Signup]
[Recover Account]


Poll


You must be logged in to view polls



Torrent Details For "Bob.the.Butler.2005.1080p.WEBRip.DD5.1.x264-monkee"

Bob.the.Butler.2005.1080p.WEBRip.DD5.1.x264-monkee

Download this torrent | Magnet Download
Health:
Seeds: 0
Leechers: 8
Completed:
Last Checked: 11-11-2018 00:45:38
External Torrent
Update Stats
Download Magnet


Poster


iMDB
Imdb Picture Title: Bob the Butler
Year: 2005
Runtime: 90 minutes
Votes: 3357
Rating: 5.7/10
Language: English
Country: Canada, UK
All Genres: Comedy, Family
Plot Outline: Tom Green stars as a bumbling buffoon, who lands at Butling after working his way through all other 'A' and 'B' jobs.
Tagline: The family will never be the same.
Director: Gary Sinyor
Writing By: Jane Walker Wood,Steven Manners,Jane Walker Wood,Steven Manners,Gary Sinyor,
Produced By: Chris Atkins,Simon Barnes,Simon Baxter,Tom Green,Jim Howell,Steven Manners,Al Munteanu,Terence S. Potter,Jacqueline Quella,Esther Randall,Jacquelyn Renner,Danielle Robertson,Steve Roeder,Gary Rubin,Gavin Wilding,Jane Walker Wood,
Music: David A. Hughes
Plot:

Goofy Canadian screwup Bob Tree goes trough the yellow pages alphabetically to pick jobs, applies and messes them up every time. In the B's, he arrived at butler and takes a wacky crash-course with the somewhat odd Mr. Butler. Bob gets hired, but really more as babysitter cum housekeeper for Jacques, his fuzzy lover Anne Jamieson and, most of all, her spoiled-rotten kids Bates and Tess, terrible handfuls which his unorthodox methods may at least take by surprise.

- Written by KGF Vissers

Tom Green stars as a bumbling buffoon, who lands at Butling after working his way through all other 'A' and 'B' jobs.

- Written by Anonymous
Cast:
Tom Green as Bob Tree
Brooke Shields as Anne Jamieson
Genevieve Buechner as Tess Jamieson
Benjamin B. Smith as Bates Jamieson
Rob LaBelle as Jacques
Valerie Tian as Sophie
Simon Callow as Mr. Butler
Iris Graham as Mama Clara
Dolores Drake as Maureen
Bill Chandler as Rabbi


Watch-Free-HD     Download

Details
Name:Bob.the.Butler.2005.1080p.WEBRip.DD5.1.x264-monkee
Description:
Video
ID                                       : 1
Format                                   : AVC
Format/Info                              : Advanced Video Codec
Format profile                           : [email protected]
Format settings, CABAC                   : Yes
Format settings, ReFrames                : 4 frames
Codec ID                                 : V_MPEG4/ISO/AVC
Duration                                 : 1 h 29 min
Bit rate mode                            : Variable
Bit rate                                 : 13.1 Mb/s
Maximum bit rate                         : 15.0 Mb/s
Width                                    : 1 920 pixels
Height                                   : 1 080 pixels
Display aspect ratio                     : 16:9
Frame rate mode                          : Constant
Frame rate                               : 23.976 (24000/1001) FPS
Color space                              : YUV
Chroma subsampling                       : 4:2:0
Bit depth                                : 8 bits
Scan type                                : Progressive
Bits/(Pixel*Frame)                       : 0.263
Stream size                              : 8.21 GiB (95%)
Default                                  : Yes
Forced                                   : No
Color range                              : Limited
Color primaries                          : BT.709
Transfer characteristics                 : BT.709
Matrix coefficients                      : BT.709

Audio
ID                                       : 2
Format                                   : E-AC-3
Format/Info                              : Enhanced Audio Coding 3
Format settings, Endianness              : Big
Codec ID                                 : A_EAC3
Duration                                 : 1 h 29 min
Bit rate mode                            : Constant
Bit rate                                 : 640 kb/s
Channel(s)                               : 6 channels
Channel positions                        : Front: L C R, Side: L R, LFE
Sampling rate                            : 48.0 kHz
Frame rate                               : 187.500 FPS (256 spf)
Compression mode                         : Lossy
Stream size                              : 412 MiB (5%)
Language                                 : English
Service kind                             : Complete Main
Default                                  : Yes
Forced                                   : No

Text
ID                                       : 3
Format                                   : UTF-8
Codec ID                                 : S_TEXT/UTF8
Codec ID/Info                            : UTF-8 Plain Text
Duration                                 : 1 h 28 min
Bit rate                                 : 59 b/s
Count of elements                        : 1879
Stream size                              : 38.8 KiB (0%)
Language                                 : English
Default                                  : No
Forced                                   : No







Category:Movies > HDRips
Lang:English  English
Total Size:8.61 GB
Info Hash:fc5171362b93545c343777409b586370b0bc5e40
Added By:SULTAN
Date Added:13-07-2017 18:13:05
Views:115
Hits:59

Download Torrent

Ratings:Not Yet Rated (Log in to rate it)


Tracker:
udp://tracker.trackerfix.com:85/announce


File List: 


Comments

No comments still posted

Powered by 10 Hamsters v2-svn -|- Page Generated In 1.494573 secs.
-|- RSS FEED
Theme By: Nikkbu