[Login] or [Signup]
Login
Username:
Password:
[Signup]
[Recover Account]


Poll


You must be logged in to view polls



Torrent Details For "The Bongs Again (2017) - HDTVRip [Mp4 - AAC3(2Ch)] - 550 MB "

The Bongs Again (2017) - HDTVRip [Mp4 - AAC3(2Ch)] - 550 MB

Download this torrent | Magnet Download
Health:
Seeds: 0
Leechers: 2
Completed: 84 
Last Checked: 09-11-2018 03:19:07
External Torrent
Update Stats
Download Magnet


Poster


iMDB
Title: The Bongs Again
Year: 2017
Votes: 21
Rating: 7.0/10
Language: English, Bengali
Director: Anjan Dutt
Writing By: Anjan Dutt,Joy Ganguly,
Produced By: Himanshu Dhanuka,Joy Ganguly,Sanjay Pathak,Sudipto Sarkar,
Music: Neel Dutt
Cast:
Deepak Anand as Deepak (Father)
Aditi Bajpai as Aitree, The Friend
Karishma Bhandari as Isha
Gaurav Chakrabarty as
Subhra Sourav Das as
Anjan Dutt as
Lee Nicholas Harris as Police Sgt
Hassan Khan as
Cristian Lazar as Thief
Bradley Wj Miller as Gang Leader


Watch-Free-HD     Download

Details
Name:The Bongs Again (2017) - HDTVRip [Mp4 - AAC3(2Ch)] - 550 MB
Description:
   The Bongs Again (2017) - HDTVRip
[Mp4 - AAC3(2Ch)] - 550 MB  
 







General
Format                                   : MPEG-4
Format profile                           : Base Media
Codec ID                                 : isom (isom)
File size                                : 550 MiB
Duration                                 : 2 h 16 min

Video
ID                                       : 1
Format                                   : AVC
Format/Info                              : Advanced Video Codec
Format profile                           : [email protected]
Format settings                          : CABAC / 4 Ref Frames
Format settings, CABAC                   : Yes
Format settings, RefFrames               : 4 frames
Codec ID                                 : avc1
Codec ID/Info                            : Advanced Video Coding
Duration                                 : 2 h 16 min
Bit rate                                 : 479 kb/s
Maximum bit rate                         : 2 296 kb/s
Width                                    : 560 pixels
Height                                   : 240 pixels
Display aspect ratio                     : 2.35:1
Frame rate mode                          : Constant
Frame rate                               : 25.000 FPS
Color space                              : YUV
Chroma subsampling                       : 4:2:0
Bit depth                                : 8 bits
Scan type                                : Progressive
Bits/(Pixel*Frame)                       : 0.143
Stream size                              : 469 MiB (85%)

Audio
ID                                       : 2
Format                                   : AAC LC SBR
Commercial name                          : HE-AAC
Format settings                          : Explicit
Codec ID                                 : mp4a-40-2
Duration                                 : 2 h 16 min
Bit rate mode                            : Variable
Bit rate                                 : 79.8 kb/s
Maximum bit rate                         : 87.2 kb/s
Channel(s)                               : 6 channels
Channel layout                           : C L R Ls Rs LFE
Sampling rate                            : 48.0 kHz
Stream size                              : 78.2 MiB (14%)


 Thumbnail  




Category:Movies > Bengali
Lang:Bengali  Bengali
Total Size:550.50 MB
Info Hash:f7c6438c732bf5245c6feed1a9800a3c8d64d404
Added By:CyberTron
Date Added:23-10-2018 12:22:07
Views:297
Hits:26

Download Torrent

Ratings:Not Yet Rated (Log in to rate it)

  


Tracker:
udp://tracker.trackerfix.com:80/announce


File List: 


Comments

No comments still posted

Powered by 10 Hamsters v2-svn -|- Page Generated In 0.600833 secs.
-|- RSS FEED
Theme By: Nikkbu