[Login] or [Signup]
Login
Username:
Password:
[Signup]
[Recover Account]


Poll


You must be logged in to view polls



Torrent Details For "Gifted (2017) 1080p HDRip UNCUT x264 1Gb E-Subs [LoveHD]"

Gifted (2017) 1080p HDRip UNCUT x264 1Gb E-Subs [LoveHD]

Download this torrent | Magnet Download
Health:
Seeds: 0
Leechers: 10
Completed: 126 
Last Checked: 30-10-2018 05:18:01
External Torrent
Update Stats
Download Magnet


Poster


iMDB
Imdb Picture Title: Gifted
Year: 2017
Runtime: 101 minutes
Votes: 3085
Rating: 7.8/10
Language: English
Country: USA
All Genres: Drama
Plot Outline: Frank, a single man raising his child prodigy niece Mary, is drawn into a custody battle with his mother.
Director: Marc Webb
Writing By: Tom Flynn,
Produced By: Molly Allen,Glen Basner,Ben Browning,Andy Cohen,T.K. Knowles,Karen Lunder,John O'Grady,Chuck Ryant,
Music: Rob Simonsen
Plot:

Frank Adler (Chris Evans) is a single man raising a child prodigy - his spirited young niece Mary (Mckenna Grace) in a coastal town in Florida. Frank's plans for a normal school life for Mary are foiled when the seven-year-old's mathematical abilities come to the attention of Frank's formidable mother Evelyn (Lindsay Duncan) whose plans for her granddaughter threaten to separate Frank and Mary. Octavia Spencer plays Roberta, Frank and Mary's landlady and best friend. Jenny Slate is Mary's teacher, Bonnie, a young woman whose concern for her student develops into a connection with her uncle as well.

- Written by Fox Searchlight Pictures

Frank, a single man raising his child prodigy niece Mary, is drawn into a custody battle with his mother.

- Written by Fox Searchlight Pictures
Cast:
Chris Evans as Frank Adler
Mckenna Grace as Mary Adler
Lindsay Duncan as Evelyn
Jenny Slate as Bonnie
Octavia Spencer as Roberta Taylor
Michael Kendall Kaplan as Justin Gilmore
John M. Jackson as Judge Edward Nichols
Glenn Plummer as Greg Cullen
John Finn as Aubrey Highsmith
Elizabeth Marvel as Gloria Davis
Trailers:
Gifted


Watch-Free-HD     Download

Details
Name:Gifted (2017) 1080p HDRip UNCUT x264 1Gb E-Subs [LoveHD]
Description:


Gifted (2017) 1080p HDRip UNCUT x264 1Gb E-Subs [LoveHD]



Plot:-
Frank, a single man raising his child prodigy niece Mary, is drawn into a custody battle with his mother.
Director: Marc Webb
Writer: Tom Flynn
Stars: Chris Evans, Mckenna Grace, Lindsay Duncan
IMDB: http://www.imdb.com/title/tt4481414/

Screenshots:- Click to Open:-

 http://imgchili.net/show/107092/107092241_giftedd_(1).png
 http://imgchili.net/show/107092/107092244_giftedd_(2).png
 http://imgchili.net/show/107092/107092245_giftedd_(3).png
 http://imgchili.net/show/107092/107092247_giftedd_(4).png
 http://imgchili.net/show/107092/107092249_giftedd_(5).png
 http://imgchili.net/show/107092/107092250_giftedd_(6).png

Quote:

Format                                   : Matroska
Format version                           : Version 4 / Version 2
File size                                : 1.02 GiB
Duration                                 : 1 h 37 min
Overall bit rate                         : 1 509 kb/s

Video
ID                                       : 1
Format                                   : AVC
Format/Info                              : Advanced Video Codec
Format profile                           : [email protected]
Format settings, CABAC                   : Yes
Format settings, RefFrames               : 3 frames
Codec ID                                 : V_MPEG4/ISO/AVC
Duration                                 : 1 h 37 min
Bit rate                                 : 1 280 kb/s
Width                                    : 1 920 pixels
Height                                   : 800 pixels
Display aspect ratio                     : 2.40:1
Frame rate mode                          : Constant
Frame rate                               : 25.000 FPS
Color space                              : YUV
Chroma subsampling                       : 4:2:0
Bit depth                                : 8 bits
Scan type                                : Progressive
Bits/(Pixel*Frame)                       : 0.033
Stream size                              : 890 MiB (85%)
Title                                    : LoveHD
Writing library                          : x264 core 148 r2643 5c65704

Audio
ID                                       : 2
Format                                   : AAC
Format/Info                              : Advanced Audio Codec
Format profile                           : LC
Codec ID                                 : A_AAC
Duration                                 : 1 h 37 min
Bit rate                                 : 224 kb/s
Channel(s)                               : 2 channels
Channel positions                        : Front: L R
Sampling rate                            : 44.1 kHz
Frame rate                               : 43.066 FPS (1024 SPF)
Compression mode                         : Lossy
Stream size                              : 155 MiB (15%)
Title                                    : LoveHD
Default                                  : Yes
Forced                                   : No

SAMPLE:-

 DOWNLOAD SAMPLE

To keep us going Support us by donating Bitcoin: 1DzidrnvDgq95yDEqnsByYw4D5J2UH6jLZ

If you like my post, don't forget to say Thanks.

Category:Movies > HDRips
Lang:English  English
Total Size:1.02 GB
Info Hash:c8fc9e3c9894a506a03720af0cb3c60cf05e055d
Added By:sharmi123
Date Added:11-07-2017 06:52:52
Views:189
Hits:38

Download Torrent

Ratings:Not Yet Rated (Log in to rate it)


Tracker:
udp://tracker.opentrackr.org:1337/announce


File List: 


Comments

No comments still posted

Powered by 10 Hamsters v2-svn -|- Page Generated In 0.418465 secs.
-|- RSS FEED
Theme By: Nikkbu