[Login] or [Signup]
Login
Username:
Password:
[Signup]
[Recover Account]


Poll


You must be logged in to view polls



Torrent Details For "Rambo Quintology x264 720p BluRay Dual Audio English Hindi GOPISAHI"

Rambo Quintology x264 720p BluRay Dual Audio English Hindi GOPISAHI

Download this torrent | Magnet Download
Health:
Seeds: 0
Leechers: 522
Completed:
Last Checked: 19-10-2018 09:58:31
External Torrent
Update Stats
Download Magnet


Poster
No poster


Watch-Free-HD     Download

Details
Name:Rambo Quintology x264 720p BluRay Dual Audio English Hindi GOPISAHI
Description:
 http://www.gopisahi.pw/

Format                         : Matroska
Format version                 : Version 4 / Version 2
File size                      : 749 MiB
Duration                       : 1 h 31 min
Overall bit rate               : 1 144 kb/s
Movie name                     : Rambo 2008 GOPISAHI

Video
Format                         : AVC
Codec ID                       : V_MPEG4/ISO/AVC
Duration                       : 1 h 31 min
Bit rate                       : 950 kb/s
Width                          : 1 280 pixels
Height                         : 528 pixels
Display aspect ratio           : 2.40:1
Frame rate mode                : Constant
Frame rate                     : 23.976 (24000/1001) FPS
Color space                    : YUV
Chroma subsampling             : 4:2:0
Bit depth                      : 8 bits
Scan type                      : Progressive
Bits/(Pixel*Frame)             : 0.059
Stream size                    : 621 MiB (83%)
Title                          : GOPISAHI
Writing library                : x264 core 142 r2479 dd79a61

Audio #1
Format                         : AAC
Duration                       : 1 h 31 min
Bit rate                       : 96.0 kb/s
Channel(s)                     : 2 channels
Channel positions              : Front: L R
Sampling rate                  : 48.0 kHz
Frame rate                     : 46.875 FPS (1024 SPF)
Compression mode               : Lossy
Delay relative to video        : -83 ms
Stream size                    : 62.9 MiB (8%)
Title                          : GOPISAHI
Language                       : Hindi

Audio #2
Format                         : AAC
Duration                       : 1 h 31 min
Bit rate                       : 96.0 kb/s
Channel(s)                     : 2 channels
Channel positions              : Front: L R
Sampling rate                  : 48.0 kHz
Frame rate                     : 46.875 FPS (1024 SPF)
Compression mode               : Lossy
Delay relative to video        : -83 ms
Stream size                    : 62.9 MiB (8%)
Title                          : GOPISAHI
Language                       : English

0CGDgCLcBGAs/s1600/Rambo%2BFirst%2BBlood%2B1985%2BGOPISAHI.mkv_thumbs.jpg" onclick="return false;">0CGDgCLcBGAs/s1600/Rambo%2BFirst%2BBlood%2B1985%2BGOPISAHI.mkv_thumbs.jpg" class="resized" style="width:65em;height:auto;" />


Category:Movies > Hollywood Dub
Lang:Hindi
Total Size:2.48 GB
Info Hash:2d05ccce78520776cf73df9001e857b21b0a4760
Added By:gopisahi
Date Added:18-10-2018 17:40:13
Views:669
Hits:50

Download Torrent

Ratings:Not Yet Rated (Log in to rate it)


Tracker:
udp://tracker.coppersurfer.tk:6969/announce


File List: 


Comments

No comments still posted

Powered by 10 Hamsters v2-svn -|- Page Generated In 0.627760 secs.
-|- RSS FEED
Theme By: Nikkbu