[Login] or [Signup]
Login
Username:
Password:
[Signup]
[Recover Account]


Poll


You must be logged in to view polls



Torrent Details For " Charitraheen (2018 - Ep1 To Ep11 Complete Season) - 2CD - Bengali Web Series Rip[x264 - AAC3(..."

Charitraheen (2018 - Ep1 To Ep11 Complete Season) - 2CD - Bengali Web Series Rip[x264 - AAC3(...

Download this torrent | Magnet Download
Health:
Seeds: 38
Leechers: 18
Completed: 675 
Last Checked: 16-11-2018 18:44:46
External Torrent
Update Stats
Download Magnet


Poster


Watch-Free-HD     Download

Details
Name: Charitraheen (2018 - Ep1 To Ep11 Complete Season) - 2CD - Bengali Web Series Rip[x264 - AAC3(...
Description:
   Charitraheen (2018 - Ep1 To Ep11 Complete Season) -
2CD - Bengali Web Series Rip[x264 - AAC3(5.1Ch)]    
 





General
Format                                   : Matroska
Format version                           : Version 4
File size                                : 1.40 GiB
Duration                                 : 3 h 45 min

Video
ID                                       : 1
Format                                   : AVC
Format/Info                              : Advanced Video Codec
Format profile                           : [email protected]
Format settings                          : CABAC / 4 Ref Frames
Format settings, CABAC                   : Yes
Format settings, RefFrames               : 4 frames
Codec ID                                 : V_MPEG4/ISO/AVC
Duration                                 : 3 h 45 min
Bit rate                                 : 758 kb/s
Width                                    : 720 pixels
Height                                   : 392 pixels
Display aspect ratio                     : 1.85:1
Frame rate mode                          : Constant
Frame rate                               : 25.000 FPS
Color space                              : YUV
Chroma subsampling                       : 4:2:0
Bit depth                                : 8 bits
Scan type                                : Progressive
Bits/(Pixel*Frame)                       : 0.107
Stream size                              : 1.20 GiB (85%)

Audio
ID                                       : 2
Format                                   : AAC LC SBR
Commercial name                          : HE-AAC
Format settings                          : Explicit
Codec ID                                 : A_AAC-2
Duration                                 : 3 h 45 min
Bit rate                                 : 128 kb/s
Channel(s)                               : 6 channels
Channel layout                           : C L R Ls Rs LFE
Sampling rate                            : 48.0 kHz
Stream size                              : 207 MiB (14%)

 Thumbnail  



Category:Movies > Bengali
Lang:Bengali  Bengali
Total Size:1.40 GB
Info Hash:b92671c7b1ffc9c39c4c936daab6165757e89a9a
Added By:CyberTron
Date Added:13-10-2018 10:47:21
Views:678
Hits:230

Download Torrent

Ratings:Not Yet Rated (Log in to rate it)

  


Tracker:
udp://tracker.trackerfix.com:80/announce


File List: 


Comments

No comments still posted

Powered by 10 Hamsters v2-svn -|- Page Generated In 0.404095 secs.
-|- RSS FEED
Theme By: Nikkbu