[Login] or [Signup]
Login
Username:
Password:
[Signup]
[Recover Account]


Poll


You must be logged in to view polls



Torrent Details For "Fanney.Khan.(2018).HDRip.720p.Hindi.x264.AAC.2.0.-.TeamTelly.Exclusive"

Fanney.Khan.(2018).HDRip.720p.Hindi.x264.AAC.2.0.-.TeamTelly.Exclusive

Download this torrent | Magnet Download
Health:
Seeds: 244
Leechers: 227
Completed: 292 
Last Checked: 12-10-2018 09:07:24
External Torrent
Update Stats
Download Magnet


Poster


iMDB
Imdb Picture Title: Fanney Khan
Year: 2018
Runtime: 130 minutes
Votes: 54
Rating: 6.6/10
Country: India
All Genres: Comedy, Drama, Music
Plot Outline: Fanney Khan is a struggling singer who wants to make his daughter a big name in music world.


Director: Atul Manjrekar
Writing By: Dominique Deruddere,Atul Manjrekar,Hussain Dalal,Hussain Dalal,Jasmeet K. Reen,
Produced By: Kussum Arora,Prerna Arora,Smitha Baliga,P.S. Bharathi,Anil Kapoor,Bhushan Kumar,Krishan Kumar,Rakeysh Omprakash Mehra,Nishant Pitti,Aditya Singh,Rajiv Tandon,
Music: Amit Trivedi
Cast:
Aishwarya Rai Bachchan as
Anil Kapoor as Fanney Khan
Rajkummar Rao as
Divya Dutta as
Pihu Sand as
Anaitha Nair as
Trailers:
Fanney Khan Trailer
Fanney Khan Teaser


Watch-Free-HD     Download

Details
Name:Fanney.Khan.(2018).HDRip.720p.Hindi.x264.AAC.2.0.-.TeamTelly.Exclusive
Description:




 http://LatestHD.net



General
Complete name               : C:\Users\cpthecoolone\Downloads\Video\LatestHD.net - Fanney.Khan.(2018).HDRip.720p.Hindi.x264.AAC.2.0.-.TeamTelly.Exclusive.mp4
Format                      : MPEG-4
Format profile              : Base Media
Codec ID                    : isom (isom/iso2/avc1/mp41)
File size                   : 1.09 GiB
Duration                    : 2 h 9 min
Overall bit rate            : 1 207 kb/s
Movie name                  : LatestHD.net - Fanney Khan (2018) 1080p HDRip
Writing application         : Lavf58.12.100

Video
ID                          : 1
Format                      : AVC
Format/Info                 : Advanced Video Codec
Format profile              : [email protected]
Format settings             : CABAC / 4 Ref Frames
Format settings, CABAC      : Yes
Format settings, ReFrames   : 4 frames
Codec ID                    : avc1
Codec ID/Info               : Advanced Video Coding
Duration                    : 2 h 9 min
Bit rate                    : 1 084 kb/s
Width                       : 1 280 pixels
Height                      : 542 pixels
Display aspect ratio        : 2.35:1
Original display aspect rat : 2.35:1
Frame rate mode             : Constant
Frame rate                  : 25.000 FPS
Color space                 : YUV
Chroma subsampling          : 4:2:0
Bit depth                   : 8 bits
Scan type                   : Progressive
Bits/(Pixel*Frame)          : 0.063
Stream size                 : 989 MiB (89%)
Title                       : LatestHD.net
Writing library             : x264 core 148 r2643 5c65704
Encoding settings           : cabac=1 / ref=1 / deblock=1:0:0 / analyse=0x3:0x3 / me=dia / subme=1 / psy=1 / psy_rd=1.00:0.00 / mixed_ref=0 / me_range=16 / chroma_me=1 / trellis=0 / 8x8dct=1 / cqm=0 / deadzone=21,11 / fast_pskip=1 / chroma_qp_offset=0 / threads=12 / lookahead_threads=2 / sliced_threads=0 / nr=0 / decimate=1 / interlaced=0 / bluray_compat=0 / constrained_intra=0 / bframes=3 / b_pyramid=2 / b_adapt=1 / b_bias=0 / direct=1 / weightb=1 / open_gop=0 / weightp=1 / keyint=250 / keyint_min=25 / scenecut=40 / intra_refresh=0 / rc=abr / mbtree=0 / bitrate=1084 / ratetol=1.0 / qcomp=0.60 / qpmin=0 / qpmax=69 / qpstep=4 / ip_ratio=1.40 / pb_ratio=1.30 / aq=1:1.00
Codec configuration box     : avcC

Audio
ID                          : 2
Format                      : AAC LC
Format/Info                 : Advanced Audio Codec Low Complexity
Codec ID                    : mp4a-40-2
Duration                    : 2 h 9 min
Bit rate mode               : Constant
Bit rate                    : 128 kb/s
Channel(s)                  : 1 channel
Channel layout              : C
Sampling rate               : 44.1 kHz
Frame rate                  : 43.066 FPS (1024 SPF)
Compression mode            : Lossy
Stream size                 : 118 MiB (11%)
Title                       : LatestHD.net
Language                    : Hindi
Default                     : Yes
Alternate group             : 1

 
 
 
 
 
 
 
 
 
 
 
Category:Movies > Bollywood
Lang:Hindi
Total Size:1.09 GB
Info Hash:567a805b8feb0bce4800c762a49925f434a9c1a6
Added By:LatestHDMovies
Date Added:12-10-2018 05:04:50
Views:999
Hits:304

Download Torrent

Ratings:Not Yet Rated (Log in to rate it)


Tracker:
udp://tracker.coppersurfer.tk:6969/announce


File List: 


Comments

No comments still posted

Powered by 10 Hamsters v2-svn -|- Page Generated In 3.975925 secs.
-|- RSS FEED
Theme By: Nikkbu