[Login] or [Signup]
Login
Username:
Password:
[Signup]
[Recover Account]


Poll


You must be logged in to view polls



Torrent Details For " Fanney Khan (2018) - 1CD - HDRip [Mp4 - AAC3(5.1Ch)]"

Fanney Khan (2018) - 1CD - HDRip [Mp4 - AAC3(5.1Ch)]

Download this torrent | Magnet Download
Health:
Seeds: 20
Leechers: 34
Completed: 45 
Last Checked: 12-10-2018 14:22:52
External Torrent
Update Stats
Download Magnet


Poster


iMDB
Imdb Picture Title: Fanney Khan
Year: 2018
Runtime: 130 minutes
Votes: 54
Rating: 6.6/10
Country: India
All Genres: Comedy, Drama, Music
Plot Outline: Fanney Khan is a struggling singer who wants to make his daughter a big name in music world.


Director: Atul Manjrekar
Writing By: Dominique Deruddere,Atul Manjrekar,Hussain Dalal,Hussain Dalal,Jasmeet K. Reen,
Produced By: Kussum Arora,Prerna Arora,Smitha Baliga,P.S. Bharathi,Anil Kapoor,Bhushan Kumar,Krishan Kumar,Rakeysh Omprakash Mehra,Nishant Pitti,Aditya Singh,Rajiv Tandon,
Music: Amit Trivedi
Cast:
Aishwarya Rai Bachchan as
Anil Kapoor as Fanney Khan
Rajkummar Rao as
Divya Dutta as
Pihu Sand as
Anaitha Nair as
Trailers:
Fanney Khan Trailer
Fanney Khan Teaser


Watch-Free-HD     Download

Details
Name: Fanney Khan (2018) - 1CD - HDRip [Mp4 - AAC3(5.1Ch)]
Description:
   Fanney Khan (2018) - 1CD - HDRip
[Mp4 - AAC3(5.1Ch)]    
 








General
Format                                   : Matroska
Format version                           : Version 4
File size                                : 699 MiB
Duration                                 : 2 h 29 min

Video
ID                                       : 1
Format                                   : AVC
Format/Info                              : Advanced Video Codec
Format profile                           : [email protected]
Format settings                          : CABAC / 4 Ref Frames
Format settings, CABAC                   : Yes
Format settings, RefFrames               : 4 frames
Codec ID                                 : V_MPEG4/ISO/AVC
Duration                                 : 2 h 29 min
Bit rate                                 : 524 kb/s
Width                                    : 624 pixels
Height                                   : 272 pixels
Display aspect ratio                     : 2.25:1
Frame rate mode                          : Constant
Frame rate                               : 25.000 FPS
Color space                              : YUV
Chroma subsampling                       : 4:2:0
Bit depth                                : 8 bits
Scan type                                : Progressive
Bits/(Pixel*Frame)                       : 0.123
Stream size                              : 560 MiB (80%)

Audio
ID                                       : 2
Format                                   : AAC LC SBR
Commercial name                          : HE-AAC
Format settings                          : Explicit
Codec ID                                 : A_AAC-2
Duration                                 : 2 h 29 min
Bit rate                                 : 128 kb/s
Channel(s)                               : 6 channels
Channel layout                           : C L R Ls Rs LFE
Sampling rate                            : 48.0 kHz
Stream size                              : 137 MiB (20%)



 Thumbnail  





Category:Movies > Bollywood
Lang:Hindi
Total Size:699.01 MB
Info Hash:74283200e1eadbadbd582dc0a048259acd53fed2
Added By:CyberTron
Date Added:11-10-2018 23:46:57
Views:475
Hits:39

Download Torrent

Ratings:Not Yet Rated (Log in to rate it)

  


Tracker:
udp://tracker.trackerfix.com:80/announce


File List: 


Comments

No comments still posted

Powered by 10 Hamsters v2-svn -|- Page Generated In 0.728566 secs.
-|- RSS FEED
Theme By: Nikkbu