[Login] or [Signup]
Login
Username:
Password:
[Signup]
[Recover Account]


Poll


You must be logged in to view polls



Torrent Details For "Fanney Khan (2018) Hindi 720p HDRip x264 AAC Full Bollywood Movie 1.1GB -[SM Team]"

Fanney Khan (2018) Hindi 720p HDRip x264 AAC Full Bollywood Movie 1.1GB -[SM Team]

Download this torrent | Magnet Download
Health:
Seeds: 287
Leechers: 860
Completed: 436 
Last Checked: 12-10-2018 04:48:00
External Torrent
Update Stats
Download Magnet


Poster


iMDB
Imdb Picture Title: Fanney Khan
Year: 2018
Runtime: 130 minutes
Votes: 54
Rating: 6.6/10
Country: India
All Genres: Comedy, Drama, Music
Plot Outline: Fanney Khan is a struggling singer who wants to make his daughter a big name in music world.


Director: Atul Manjrekar
Writing By: Dominique Deruddere,Atul Manjrekar,Hussain Dalal,Hussain Dalal,Jasmeet K. Reen,
Produced By: Kussum Arora,Prerna Arora,Smitha Baliga,P.S. Bharathi,Anil Kapoor,Bhushan Kumar,Krishan Kumar,Rakeysh Omprakash Mehra,Nishant Pitti,Aditya Singh,Rajiv Tandon,
Music: Amit Trivedi
Cast:
Aishwarya Rai Bachchan as
Anil Kapoor as Fanney Khan
Rajkummar Rao as
Divya Dutta as
Pihu Sand as
Anaitha Nair as
Trailers:
Fanney Khan Trailer
Fanney Khan Teaser


Watch-Free-HD     Download

Details
Name:Fanney Khan (2018) Hindi 720p HDRip x264 AAC Full Bollywood Movie 1.1GB -[SM Team]
Description:
New Latest HD Movies Download Link :-  http://skymovieshd.in
***********************************



==Media Info==

Video
ID : 1
Format : AVC
Format/Info : Advanced Video Codec
Format profile : [email protected]
Format settings : CABAC / 3 Ref Frames
Format settings, CABAC : Yes
Format settings, RefFrames : 3 frames
Codec ID : V_MPEG4/ISO/AVC
Duration : 2 h 9 min
Bit rate : 2 521 kb/s
Width : 1 280 pixels
Height : 544 pixels
Display aspect ratio : 2.35:1
Frame rate mode : Constant
Frame rate : 23.976 (23976/1000) FPS
Standard : Component
Color space : YUV
Chroma subsampling : 4:2:0
Bit depth : 8 bits
Scan type : Progressive
Bits/(Pixel*Frame) : 0.151
Stream size : 2.28 GiB (94%)
Title : SkyMoviesHD.in
Default : Yes
Forced : No
Color range : Limited
Color primaries : BT.709
Transfer characteristics : BT.709
Matrix coefficients : BT.709

Audio
ID : 2
Format : AAC LC
Format/Info : Advanced Audio Codec Low Complexity
Codec ID : A_AAC-2
Duration : 2 h 9 min
Bit rate : 161 kb/s
Channel(s) : 2 channels
Channel layout : L R
Sampling rate : 44.1 kHz
Frame rate : 43.066 FPS (1024 SPF)
Compression mode : Lossy
Stream size : 149 MiB (6%)
Title : SkyMoviesHD.in
Default : Yes
Forced : No










New Latest HD Movies Download Link :-  http://skymovieshd.in
***********************************

Category:Movies > Bollywood
Lang:Hindi
Total Size:1.08 GB
Info Hash:441481a7331b1e161533f3fb60a154d946469d26
Added By:Hdrex
Date Added:11-10-2018 21:15:34
Views:617
Hits:114

Download Torrent

Ratings:Not Yet Rated (Log in to rate it)


Tracker:
udp://tracker.coppersurfer.tk:6969/announce


File List: 


Comments

No comments still posted

Powered by 10 Hamsters v2-svn -|- Page Generated In 1.186454 secs.
-|- RSS FEED
Theme By: Nikkbu