[Login] or [Signup]
Login
Username:
Password:
[Signup]
[Recover Account]


Poll


You must be logged in to view polls



Torrent Details For "All Styles 2018 1080p WEB-DL DD 5.1 x264 [MW]"

All Styles 2018 1080p WEB-DL DD 5.1 x264 [MW]

Download this torrent | Magnet Download
Health:
Seeds: 35
Leechers: 85
Completed: 33 
Last Checked: 11-10-2018 18:21:34
External Torrent
Update Stats
Download Magnet


Poster
No poster


Watch-Free-HD     Download

Details
Name:All Styles 2018 1080p WEB-DL DD 5.1 x264 [MW]
Description:

 


General
Format                                   : Matroska
Format version                           : Version 4 / Version 2
File size                                : 1.85 GiB
Duration                                 : 1 h 30 min
Overall bit rate                         : 2 915 kb/s

Video
ID                                       : 1
Format                                   : AVC
Format/Info                              : Advanced Video Codec
Format profile                           : [email protected]
Format settings                          : CABAC / 4 Ref Frames
Format settings, CABAC                   : Yes
Format settings, RefFrames               : 4 frames
Codec ID                                 : V_MPEG4/ISO/AVC
Duration                                 : 1 h 30 min
Bit rate                                 : 2 500 kb/s
Width                                    : 1 920 pixels
Height                                   : 796 pixels
Display aspect ratio                     : 2.40:1
Frame rate mode                          : Constant
Frame rate                               : 23.976 (24000/1001) FPS
Color space                              : YUV
Chroma subsampling                       : 4:2:0
Bit depth                                : 8 bits
Scan type                                : Progressive
Bits/(Pixel*Frame)                       : 0.068
Stream size                              : 1.60 GiB (87%)
Writing library                          : x264 core 155 r2901 7d0ff22
Default                                  : Yes
Forced                                   : No

Audio
ID                                       : 2
Format                                   : AC-3
Format/Info                              : Audio Coding 3
Codec ID                                 : A_AC3
Duration                                 : 1 h 30 min
Bit rate mode                            : Constant
Bit rate                                 : 384 kb/s
Channel(s)                               : 6 channels
Channel positions                        : Front: L C R, Side: L R, LFE
Sampling rate                            : 48.0 kHz
Frame rate                               : 31.250 FPS (1536 SPF)
Bit depth                                : 16 bits
Compression mode                         : Lossy
Stream size                              : 249 MiB (13%)
Language                                 : English
Service kind                             : Complete Main
Default                                  : Yes
Forced                                   : No

Text
ID                                       : 3
Format                                   : UTF-8
Codec ID                                 : S_TEXT/UTF8
Codec ID/Info                            : UTF-8 Plain Text
Duration                                 : 1 h 30 min
Bit rate                                 : 53 b/s
Count of elements                        : 1271
Stream size                              : 35.4 KiB (0%)
Language                                 : English
Default                                  : Yes
Forced                                   : No


 http://pichub.site/image/dDlI8
 http://pichub.site/image/dD6AJ
 http://pichub.site/image/dDPl5
 http://pichub.site/image/dDn4h
 http://pichub.site/image/dD3Lr
 http://pichub.site/image/dDsyj

Category:Movies > HDRips
Lang:English  English
Total Size:1.85 GB
Info Hash:1da6b4e9398e83ca953d5d1fef41f26749561f23
Added By:Freaky
Date Added:11-10-2018 18:20:35
Views:78
Hits:0

Download Torrent

Ratings:Not Yet Rated (Log in to rate it)


Tracker:
udp://tracker.coppersurfer.tk:6969/announce


File List: 


Comments

No comments still posted

Powered by 10 Hamsters v2-svn -|- Page Generated In 0.542938 secs.
-|- RSS FEED
Theme By: Nikkbu