[Login] or [Signup]
Login
Username:
Password:
[Signup]
[Recover Account]


Poll


You must be logged in to view polls



Torrent Details For "Shotru (2011) Bengali Movie - HDTVRip [x264 - AAC3(5.1Ch)] - 851 MB"

Shotru (2011) Bengali Movie - HDTVRip [x264 - AAC3(5.1Ch)] - 851 MB

Download this torrent | Magnet Download
Health:
Seeds: 15
Leechers: 42
Completed: 16 
Last Checked: 12-10-2018 08:55:21
External Torrent
Update Stats
Download Magnet


Poster


iMDB
Title: Shatru
Year: 2011
Votes: 141
Rating: 6.3/10
Language: Bengali, English
Director: Raj Chakraborty
Writing By: Abhimanyu Mukherjee,Abhimanyu Mukherjee,
Produced By: Ashok Kumar Dhanuka,Swapan Kumar Ghosh,
Music: Indraadip Dasgupta
Cast:
Jeet as Inspector Dibakar Singha
Nusrat Jahan as Pooja
Haradhan Bannerjee as
Debika Mitra as
Swagata Bose as
Kharaj Mukherjee as Bhajan
Supriyo Dutta as Arjun Sarkar
Dipankar Dey as Singha
Biplab Chatterjee as
Biswajit Chakraborty as


Watch-Free-HD     Download

Details
Name:Shotru (2011) Bengali Movie - HDTVRip [x264 - AAC3(5.1Ch)] - 851 MB
Description:
   Shotru (2011) Bengali Movie - HDTVRip
[x264 - AAC3(5.1Ch)] - 851 MB  
 








General
Format                                   : MPEG-4
Format profile                           : Base Media
Codec ID                                 : isom (isom)
File size                                : 851 MiB
Duration                                 : 3 h 0 min

Video
ID                                       : 1
Format                                   : AVC
Format/Info                              : Advanced Video Codec
Format profile                           : [email protected]
Format settings                          : CABAC / 4 Ref Frames
Format settings, CABAC                   : Yes
Format settings, RefFrames               : 4 frames
Codec ID                                 : avc1
Codec ID/Info                            : Advanced Video Coding
Duration                                 : 3 h 0 min
Bit rate                                 : 529 kb/s
Maximum bit rate                         : 2 106 kb/s
Width                                    : 640 pixels
Height                                   : 272 pixels
Display aspect ratio                     : 2.35:1
Frame rate mode                          : Constant
Frame rate                               : 25.000 FPS
Color space                              : YUV
Chroma subsampling                       : 4:2:0
Bit depth                                : 8 bits
Scan type                                : Progressive
Bits/(Pixel*Frame)                       : 0.122
Stream size                              : 682 MiB (80%)

Audio
ID                                       : 2
Format                                   : AAC LC SBR
Commercial name                          : HE-AAC
Format settings                          : Explicit
Codec ID                                 : mp4a-40-2
Duration                                 : 3 h 0 min
Bit rate mode                            : Variable
Bit rate                                 : 128 kb/s
Maximum bit rate                         : 138 kb/s
Channel(s)                               : 6 channels
Channel layout                           : C L R Ls Rs LFE
Sampling rate                            : 48.0 kHz
Stream size                              : 165 MiB (19%)



 Thumbnail  





Category:Movies > Bengali
Lang:Bengali  Bengali
Total Size:851.13 MB
Info Hash:b7a6ff182131ae4dd07f4faf5461a301af5a3acb
Added By:CyberTron
Date Added:11-10-2018 14:16:47
Views:230
Hits:14

Download Torrent

Ratings:Not Yet Rated (Log in to rate it)

  


Tracker:
udp://tracker.trackerfix.com:80/announce


File List: 


Comments

No comments still posted

Powered by 10 Hamsters v2-svn -|- Page Generated In 0.602277 secs.
-|- RSS FEED
Theme By: Nikkbu