[Login] or [Signup]
Login
Username:
Password:
[Signup]
[Recover Account]


Poll


You must be logged in to view polls



Torrent Details For "22 July 2018 1080p WEBRip DD 5.1 x264 ESub [MW]"

22 July 2018 1080p WEBRip DD 5.1 x264 ESub [MW]

Download this torrent | Magnet Download
Health:
Seeds: 90
Leechers: 86
Completed: 176 
Last Checked: 11-10-2018 18:20:13
External Torrent
Update Stats
Download Magnet


Poster
No poster


Watch-Free-HD     Download

Details
Name:22 July 2018 1080p WEBRip DD 5.1 x264 ESub [MW]
Description:

 


General
Format                                   : Matroska
Format version                           : Version 4 / Version 2
File size                                : 2.53 GiB
Duration                                 : 2 h 24 min
Overall bit rate                         : 2 519 kb/s

Video
ID                                       : 1
Format                                   : AVC
Format/Info                              : Advanced Video Codec
Format profile                           : [email protected]
Format settings                          : CABAC / 4 Ref Frames
Format settings, CABAC                   : Yes
Format settings, RefFrames               : 4 frames
Codec ID                                 : V_MPEG4/ISO/AVC
Duration                                 : 2 h 24 min
Bit rate                                 : 2 200 kb/s
Width                                    : 1 920 pixels
Height                                   : 1 036 pixels
Display aspect ratio                     : 1.85:1
Frame rate mode                          : Constant
Frame rate                               : 24.000 FPS
Color space                              : YUV
Chroma subsampling                       : 4:2:0
Bit depth                                : 8 bits
Scan type                                : Progressive
Bits/(Pixel*Frame)                       : 0.046
Stream size                              : 2.15 GiB (85%)
Writing library                          : x264 core 155 r2901 7d0ff22
Default                                  : Yes
Forced                                   : No

Audio
ID                                       : 2
Format                                   : AC-3
Format/Info                              : Audio Coding 3
Codec ID                                 : A_AC3
Duration                                 : 2 h 24 min
Bit rate mode                            : Constant
Bit rate                                 : 384 kb/s
Channel(s)                               : 6 channels
Channel positions                        : Front: L C R, Side: L R, LFE
Sampling rate                            : 48.0 kHz
Frame rate                               : 31.250 FPS (1536 SPF)
Bit depth                                : 16 bits
Compression mode                         : Lossy
Stream size                              : 396 MiB (15%)
Language                                 : English
Service kind                             : Complete Main
Default                                  : Yes
Forced                                   : No

Text
ID                                       : 3
Format                                   : UTF-8
Codec ID                                 : S_TEXT/UTF8
Codec ID/Info                            : UTF-8 Plain Text
Duration                                 : 2 h 14 min
Bit rate                                 : 47 b/s
Count of elements                        : 1540
Stream size                              : 46.6 KiB (0%)
Language                                 : English
Default                                  : No
Forced                                   : No


 http://pichub.site/image/dS2ts
 http://pichub.site/image/dS52B
 http://pichub.site/image/dSljY
 http://pichub.site/image/dSXxt
 http://pichub.site/image/dSPk6
 http://pichub.site/image/dSnT4

Category:Movies > HDRips
Lang:English  English
Total Size:2.53 GB
Info Hash:af37804c4225b617e1bdf6015ab06a233463a67c
Added By:Freaky
Date Added:11-10-2018 12:36:33
Views:89
Hits:1

Download Torrent

Ratings:Not Yet Rated (Log in to rate it)


Tracker:
udp://tracker.coppersurfer.tk:6969/announce


File List: 


Comments

No comments still posted

Powered by 10 Hamsters v2-svn -|- Page Generated In 0.574400 secs.
-|- RSS FEED
Theme By: Nikkbu