[Login] or [Signup]
Login
Username:
Password:
[Signup]
[Recover Account]


Poll


You must be logged in to view polls



Torrent Details For "Kittu Unnadu Jagratha (2017) 720p UNCUT HDRip x264 [Dual Audio]-[Hindi + Telugu]-1.5GB -MovCr"

Kittu Unnadu Jagratha (2017) 720p UNCUT HDRip x264 [Dual Audio]-[Hindi + Telugu]-1.5GB -MovCr

Download this torrent | Magnet Download
Health:
Seeds: 554
Leechers: 512
Completed: 2,824 
Last Checked: 13-10-2018 15:20:33
External Torrent
Update Stats
Download Magnet


Poster


iMDB
Title: Kittu Unnadu Jagratha
Year: 2017
Runtime: 143 minutes
Votes: 67
Rating: 6.4/10
Language: Telugu
Director: Vamsy Krishna
Writing By: Sai Madhav Burra,Vamsy Krishna,Srikanth Vissa,
Produced By: Krishna kishore Garikipati,Sunkara Ramabrahmam,Anil Sunkara,
Cast:
Raj Tarun as Kittu
Anu Emmanuel as Janaki
Arbaaz Khan as AIR
Nagendra Babu as Janaki's father
Raghu Babu as Santhanam
Raghu Kumar Karumanchi as
Vennela Kishore as
Hamsa Nandini as
Prabhakar as
Praveen as


Watch-Free-HD     Download

Details
Name:Kittu Unnadu Jagratha (2017) 720p UNCUT HDRip x264 [Dual Audio]-[Hindi + Telugu]-1.5GB -MovCr
Description:
Our Site   http://movcr.cc


Kittu Unnadu Jagratha (2017) 720p UNCUT HDRip x264 [Dual Audio]-[Hindi + Telugu]-1.5GB -MovCr




 http://www.imdb.com/title/tt6750796/

 


General
Unique ID                                : 128403881411496923744695831777366061717 (0x6099B021FC94596537E423ED66D53295)
Complete name                            : [www.MovCr.cc] - Kittu Unnadu Jagratha (2017) 720p UNCUT HDRip x264 [Dual Audio]-[Hindi + Telugu]-1.5GB MovCr\www.MovCr.cc - Kittu Unnadu Jagratha (2017) 720p UNCUT HDRip x264 [Dual Audio]-[Hindi + Telugu]-1.5GB -MovCr.mkv
Format                                   : Matroska
Format version                           : Version 4 / Version 2
File size                                : 1.60 GiB
Duration                                 : 2 h 12 min
Overall bit rate                         : 1 728 kb/s
Movie name                               : www.MovCr.cc
Encoded date                             : UTC 2018-10-11 10:45:26
Writing application                      : mkvmerge v26.0.0 ('In The Game') 64-bit
Writing library                          : libebml v1.3.6 + libmatroska v1.4.9

Video
ID                                       : 1
Format                                   : AVC
Format/Info                              : Advanced Video Codec
Format profile                           : [email protected]
Format settings                          : CABAC / 4 Ref Frames
Format settings, CABAC                   : Yes
Format settings, RefFrames               : 4 frames
Codec ID                                 : V_MPEG4/ISO/AVC
Duration                                 : 2 h 12 min
Bit rate                                 : 1 484 kb/s
Width                                    : 1 280 pixels
Height                                   : 540 pixels
Display aspect ratio                     : 2.40:1
Frame rate mode                          : Constant
Frame rate                               : 25.000 FPS
Color space                              : YUV
Chroma subsampling                       : 4:2:0
Bit depth                                : 8 bits
Scan type                                : Progressive
Bits/(Pixel*Frame)                       : 0.086
Stream size                              : 1.36 GiB (85%)
Title                                    : www.MovCr.cc
Writing library                          : x264 core 148 r2708 86b7198
Encoding settings                        : cabac=1 / ref=2 / deblock=1:0:0 / analyse=0x3:0x113 / me=hex / subme=6 / psy=1 / psy_rd=1.00:0.00 / mixed_ref=1 / me_range=16 / chroma_me=1 / trellis=1 / 8x8dct=1 / cqm=0 / deadzone=21,11 / fast_pskip=1 / chroma_qp_offset=-2 / threads=12 / lookahead_threads=2 / sliced_threads=0 / nr=0 / decimate=1 / interlaced=0 / bluray_compat=0 / constrained_intra=0 / bframes=3 / b_pyramid=2 / b_adapt=1 / b_bias=0 / direct=1 / weightb=1 / open_gop=0 / weightp=1 / keyint=250 / keyint_min=25 / scenecut=40 / intra_refresh=0 / rc_lookahead=30 / rc=abr / mbtree=1 / bitrate=1484 / ratetol=1.0 / qcomp=0.60 / qpmin=0 / qpmax=69 / qpstep=4 / ip_ratio=1.40 / aq=1:1.00
Default                                  : Yes
Forced                                   : No
Color range                              : Limited
Color primaries                          : BT.709
Transfer characteristics                 : BT.709
Matrix coefficients                      : BT.709

Audio #1
ID                                       : 2
Format                                   : MPEG Audio
Format version                           : Version 1
Format profile                           : Layer 3
Format settings                          : Joint stereo / MS Stereo
Codec ID                                 : A_MPEG/L3
Codec ID/Hint                            : MP3
Duration                                 : 2 h 12 min
Bit rate mode                            : Constant
Bit rate                                 : 160 kb/s
Channel(s)                               : 2 channels
Sampling rate                            : 48.0 kHz
Frame rate                               : 41.667 FPS (1152 SPF)
Compression mode                         : Lossy
Delay relative to video                  : -23 ms
Stream size                              : 152 MiB (9%)
Title                                    : www.MovCr.cc
Writing library                          : LAME3.98.2
Language                                 : Hindi
Default                                  : Yes
Forced                                   : Yes

Audio #2
ID                                       : 3
Format                                   : AAC
Format/Info                              : Advanced Audio Codec
Format profile                           : LC
Codec ID                                 : A_AAC-2
Duration                                 : 2 h 12 min
Bit rate                                 : 96.0 kb/s
Channel(s)                               : 2 channels
Channel positions                        : Front: L R
Sampling rate                            : 44.1 kHz
Frame rate                               : 43.066 FPS (1024 SPF)
Compression mode                         : Lossy
Delay relative to video                  : -23 ms
Stream size                              : 91.1 MiB (6%)
Title                                    : www.MovCr.cc
Language                                 : Telugu
Default                                  : No
Forced                                   : No



 
 
 
 
 
 
 
 
 
 
 
 
 
Category:Movies > South Dub
Lang:Hindi
Total Size:1.63 GB
Info Hash:e102fabad4dd39b21564b5e1fb1b8aca096d5ed5
Added By:MAZE
Date Added:11-10-2018 11:58:28
Views:1,674
Hits:150

Download Torrent

Ratings:Not Yet Rated (Log in to rate it)


Tracker:
udp://tracker.coppersurfer.tk:6969/announce


File List: 


Comments

No comments still posted

Powered by 10 Hamsters v2-svn -|- Page Generated In 1.964613 secs.
-|- RSS FEED
Theme By: Nikkbu