[Login] or [Signup]
Login
Username:
Password:
[Signup]
[Recover Account]


Poll


You must be logged in to view polls



Torrent Details For "Venom 2018 1080p HD-TS x264 Dual Audio [Hindi - English] [MW]"

Venom 2018 1080p HD-TS x264 Dual Audio [Hindi - English] [MW]

Download this torrent | Magnet Download
Health:
Seeds: 1,288
Leechers: 892
Completed: 6,798 
Last Checked: 12-10-2018 15:36:08
External Torrent
Update Stats
Download Magnet


Poster
No poster


Watch-Free-HD     Download

Details
Name:Venom 2018 1080p HD-TS x264 Dual Audio [Hindi - English] [MW]
Description:

 


General
Format                                   : Matroska
Format version                           : Version 4 / Version 2
File size                                : 2.10 GiB
Duration                                 : 1 h 32 min
Overall bit rate mode                    : Variable
Overall bit rate                         : 3 269 kb/s

Video
ID                                       : 1
Format                                   : AVC
Format/Info                              : Advanced Video Codec
Format profile                           : [email protected]
Format settings                          : CABAC / 6 Ref Frames
Format settings, CABAC                   : Yes
Format settings, RefFrames               : 6 frames
Codec ID                                 : V_MPEG4/ISO/AVC
Duration                                 : 1 h 32 min
Bit rate mode                            : Variable
Bit rate                                 : 3 000 kb/s
Maximum bit rate                         : 62.5 Mb/s
Width                                    : 1 632 pixels
Height                                   : 704 pixels
Display aspect ratio                     : 2.35:1
Frame rate mode                          : Constant
Frame rate                               : 30.000 FPS
Color space                              : YUV
Chroma subsampling                       : 4:2:0
Bit depth                                : 8 bits
Scan type                                : Progressive
Bits/(Pixel*Frame)                       : 0.087
Stream size                              : 1.94 GiB (92%)
Writing library                          : x264 core 148 r2638 7599210
Default                                  : Yes
Forced                                   : No
Color range                              : Full

Audio #1
ID                                       : 2
Format                                   : AAC
Format/Info                              : Advanced Audio Codec
Format profile                           : LC
Codec ID                                 : A_AAC-2
Duration                                 : 1 h 32 min
Bit rate                                 : 128 kb/s
Channel(s)                               : 2 channels
Channel positions                        : Front: L R
Sampling rate                            : 48.0 kHz
Frame rate                               : 46.875 FPS (1024 SPF)
Compression mode                         : Lossy
Stream size                              : 84.3 MiB (4%)
Language                                 : Hindi
Default                                  : Yes
Forced                                   : No

Audio #2
ID                                       : 3
Format                                   : AAC
Format/Info                              : Advanced Audio Codec
Format profile                           : LC
Codec ID                                 : A_AAC-2
Duration                                 : 1 h 32 min
Bit rate                                 : 128 kb/s
Channel(s)                               : 2 channels
Channel positions                        : Front: L R
Sampling rate                            : 48.0 kHz
Frame rate                               : 46.875 FPS (1024 SPF)
Compression mode                         : Lossy
Stream size                              : 84.3 MiB (4%)
Language                                 : English
Default                                  : No
Forced                                   : No


 http://pichub.site/image/dSEKb
 http://pichub.site/image/dSdX0
 http://pichub.site/image/dSVMV
 http://pichub.site/image/dSciT
 http://pichub.site/image/dSkpN
 http://pichub.site/image/dSweD

Category:Movies > Hollywood Dub
Lang:Hindi
Total Size:2.10 GB
Info Hash:398fa790deb6d95fa8738b86113939c7d6dafbc2
Added By:Freaky
Date Added:11-10-2018 11:14:20
Views:1,865
Hits:228

Download Torrent

Ratings:Not Yet Rated (Log in to rate it)


Tracker:
udp://tracker.coppersurfer.tk:6969/announce


File List: 


Comments

No comments still posted

Powered by 10 Hamsters v2-svn -|- Page Generated In 0.154649 secs.
-|- RSS FEED
Theme By: Nikkbu