[Login] or [Signup]
Login
Username:
Password:
[Signup]
[Recover Account]


Poll


You must be logged in to view polls



Torrent Details For "22 Chaser 2018 1080p WEB-DL DD 5.1 x264 [MW]"

22 Chaser 2018 1080p WEB-DL DD 5.1 x264 [MW]

Download this torrent | Magnet Download
Health:
Seeds: 82
Leechers: 60
Completed: 233 
Last Checked: 11-10-2018 18:20:14
External Torrent
Update Stats
Download Magnet


Poster
No poster


Watch-Free-HD     Download

Details
Name:22 Chaser 2018 1080p WEB-DL DD 5.1 x264 [MW]
Description:

 


General
Format                                   : Matroska
Format version                           : Version 4 / Version 2
File size                                : 1.54 GiB
Duration                                 : 1 h 26 min
Overall bit rate                         : 2 530 kb/s

Video
ID                                       : 1
Format                                   : AVC
Format/Info                              : Advanced Video Codec
Format profile                           : [email protected]
Format settings                          : CABAC / 4 Ref Frames
Format settings, CABAC                   : Yes
Format settings, RefFrames               : 4 frames
Codec ID                                 : V_MPEG4/ISO/AVC
Duration                                 : 1 h 26 min
Bit rate                                 : 2 200 kb/s
Width                                    : 1 920 pixels
Height                                   : 1 080 pixels
Display aspect ratio                     : 16:9
Frame rate mode                          : Constant
Frame rate                               : 23.976 (24000/1001) FPS
Color space                              : YUV
Chroma subsampling                       : 4:2:0
Bit depth                                : 8 bits
Scan type                                : Progressive
Bits/(Pixel*Frame)                       : 0.044
Stream size                              : 1.30 GiB (85%)
Writing library                          : x264 core 155 r2901 7d0ff22
Default                                  : Yes
Forced                                   : No

Audio
ID                                       : 2
Format                                   : AC-3
Format/Info                              : Audio Coding 3
Codec ID                                 : A_AC3
Duration                                 : 1 h 26 min
Bit rate mode                            : Constant
Bit rate                                 : 384 kb/s
Channel(s)                               : 6 channels
Channel positions                        : Front: L C R, Side: L R, LFE
Sampling rate                            : 48.0 kHz
Frame rate                               : 31.250 FPS (1536 SPF)
Bit depth                                : 16 bits
Compression mode                         : Lossy
Stream size                              : 239 MiB (15%)
Language                                 : English
Service kind                             : Complete Main
Default                                  : Yes
Forced                                   : No


 http://pichub.site/image/dSiHI
 http://pichub.site/image/dS8g8
 http://pichub.site/image/dSKM5
 http://pichub.site/image/dSAnJ
 http://pichub.site/image/dSgth
 http://pichub.site/image/dSmpj

Category:Movies > HDRips
Lang:English  English
Total Size:1.54 GB
Info Hash:d576faef9609ca6753395a25d041a7c3c1f09100
Added By:Freaky
Date Added:11-10-2018 11:11:11
Views:69
Hits:2

Download Torrent

Ratings:Not Yet Rated (Log in to rate it)


Tracker:
udp://tracker.coppersurfer.tk:6969/announce


File List: 


Comments

No comments still posted

Powered by 10 Hamsters v2-svn -|- Page Generated In 0.524620 secs.
-|- RSS FEED
Theme By: Nikkbu