[Login] or [Signup]
Login
Username:
Password:
[Signup]
[Recover Account]


Poll


You must be logged in to view polls



Torrent Details For "The Tomb 2004 x264 Dual Audio English Hindi GOPISAHI"

The Tomb 2004 x264 Dual Audio English Hindi GOPISAHI

Download this torrent | Magnet Download
Health:
Seeds: 25
Leechers: 13
Completed: 335 
Last Checked: 14-10-2018 16:28:39
External Torrent
Update Stats
Download Magnet


Poster
No poster


Watch-Free-HD     Download

Details
Name:The Tomb 2004 x264 Dual Audio English Hindi GOPISAHI
Description:
 http://www.gopisahi.pw/

Format                         : Matroska

Format version                 : Version 4 / Version 2

File size                      : 322 MiB

Duration                       : 1 h 31 min

Overall bit rate               : 494 kb/s

Movie name                     : The Tomb 2004 GOPISAHI


Video

Format                         : AVC

Codec ID                       : V_MPEG4/ISO/AVC

Duration                       : 1 h 31 min

Bit rate                       : 299 kb/s

Width                          : 672 pixels

Height                         : 368 pixels

Display aspect ratio           : 1.85:1

Frame rate mode                : Constant

Frame rate                     : 25.000 FPS

Color space                    : YUV

Chroma subsampling             : 4:2:0

Bit depth                      : 8 bits

Scan type                      : Progressive

Bits/(Pixel*Frame)             : 0.048

Stream size                    : 195 MiB (60%)

Title                          : GOPISAHI

Writing library                : x264 core 155 r2901 7d0ff22


Audio #1

Format                         : AAC

Format/Info                    : Advanced Audio Codec

Duration                       : 1 h 31 min

Bit rate                       : 96.0 kb/s

Channel(s)                     : 2 channels

Channel positions              : Front: L R

Sampling rate                  : 48.0 kHz

Frame rate                     : 46.875 FPS (1024 SPF)

Compression mode               : Lossy

Delay relative to video        : -21 ms

Stream size                    : 62.7 MiB (19%)

Title                          : GOPISAHI

Language                       : Hindi


Audio #2

Format                         : AAC

Format/Info                    : Advanced Audio Codec

Duration                       : 1 h 31 min

Bit rate                       : 96.0 kb/s

Channel(s)                     : 2 channels

Channel positions              : Front: L R

Sampling rate                  : 48.0 kHz

Frame rate                     : 46.875 FPS (1024 SPF)

Compression mode               : Lossy

Delay relative to video        : -21 ms

Stream size                    : 62.8 MiB (19%)

Title                          : GOPISAHI

Language                       : English


Category:Movies > Hollywood Dub
Lang:Hindi
Total Size:322.37 MB
Info Hash:4fec7ec4a577d95b9272a5d996ffdd4cae1a3288
Added By:gopisahi
Date Added:11-10-2018 08:57:05
Views:579
Hits:19

Download Torrent

Ratings:Not Yet Rated (Log in to rate it)


Tracker:
udp://tracker.coppersurfer.tk:6969/announce


File List: 


Comments

No comments still posted

Powered by 10 Hamsters v2-svn -|- Page Generated In 0.282376 secs.
-|- RSS FEED
Theme By: Nikkbu