[Login] or [Signup]
Login
Username:
Password:
[Signup]
[Recover Account]


Poll


You must be logged in to view polls



Torrent Details For "Searching 2018 720p KORSUB HDRip x264 [MW]"

Searching 2018 720p KORSUB HDRip x264 [MW]

Download this torrent | Magnet Download
Health:
Seeds: 215
Leechers: 117
Completed: 849 
Last Checked: 11-10-2018 08:32:34
External Torrent
Update Stats
Download Magnet


Poster
No poster


Watch-Free-HD     Download

Details
Name:Searching 2018 720p KORSUB HDRip x264 [MW]
Description:


 

General
Format                                   : Matroska
Format version                           : Version 4 / Version 2
File size                                : 891 MiB
Duration                                 : 1 h 42 min
Overall bit rate                         : 1 220 kb/s

Video
ID                                       : 1
Format                                   : AVC
Format/Info                              : Advanced Video Codec
Format profile                           : [email protected]
Format settings                          : CABAC / 4 Ref Frames
Format settings, CABAC                   : Yes
Format settings, RefFrames               : 4 frames
Codec ID                                 : V_MPEG4/ISO/AVC
Duration                                 : 1 h 42 min
Bit rate                                 : 1 100 kb/s
Width                                    : 1 280 pixels
Height                                   : 720 pixels
Display aspect ratio                     : 16:9
Frame rate mode                          : Constant
Frame rate                               : 30.000 FPS
Color space                              : YUV
Chroma subsampling                       : 4:2:0
Bit depth                                : 8 bits
Scan type                                : Progressive
Bits/(Pixel*Frame)                       : 0.040
Stream size                              : 796 MiB (89%)
Writing library                          : x264 core 155 r2901 7d0ff22
Default                                  : Yes
Forced                                   : No

Audio
ID                                       : 2
Format                                   : AAC
Format/Info                              : Advanced Audio Codec
Format profile                           : LC
Codec ID                                 : A_AAC-2
Duration                                 : 1 h 42 min
Bit rate                                 : 128 kb/s
Channel(s)                               : 2 channels
Channel positions                        : Front: L R
Sampling rate                            : 48.0 kHz
Frame rate                               : 46.875 FPS (1024 SPF)
Compression mode                         : Lossy
Stream size                              : 93.5 MiB (10%)
Language                                 : English
Default                                  : Yes
Forced                                   : No


 http://pichub.site/image/dRLfT
 http://pichub.site/image/dRooD
 http://pichub.site/image/dRrhN
 http://pichub.site/image/dRpWZ
 http://pichub.site/image/dR5Vg
 http://pichub.site/image/dRlUI

Category:Movies > HDRips
Lang:English  English
Total Size:891.37 MB
Info Hash:354d4661a993f87aee6fda57ab1f6ad6df2d18ba
Added By:Freaky
Date Added:11-10-2018 08:32:27
Views:115
Hits:18

Download Torrent

Ratings:Not Yet Rated (Log in to rate it)


Tracker:
udp://tracker.coppersurfer.tk:6969/announce


File List: 


Comments

No comments still posted

Powered by 10 Hamsters v2-svn -|- Page Generated In 0.527976 secs.
-|- RSS FEED
Theme By: Nikkbu