[Login] or [Signup]
Login
Username:
Password:
[Signup]
[Recover Account]


Poll


You must be logged in to view polls



Torrent Details For "The Santa Clause 1994 x264 720p Dual Audio English Hindi GOPISAHI"

The Santa Clause 1994 x264 720p Dual Audio English Hindi GOPISAHI

Download this torrent | Magnet Download
Health:
Seeds: 0
Leechers: 0
Completed:
Last Checked: 11-10-2018 08:04:50
External Torrent
Update Stats
Download Magnet


Poster
No poster


Watch-Free-HD     Download

Details
Name:The Santa Clause 1994 x264 720p Dual Audio English Hindi GOPISAHI
Description:
[url=http://www.gopisahi.pw/]http://www.gopisahi.pw/[/url

Format                         : Matroska

Format version                 : Version 4 / Version 2

File size                      : 726 MiB

Duration                       : 1 h 32 min

Overall bit rate               : 1 094 kb/s

Movie name                     : GOPISAHI


Video

Format                         : AVC

Format/Info                    : Advanced Video Codec

Codec ID                       : V_MPEG4/ISO/AVC

Duration                       : 1 h 32 min

Bit rate                       : 899 kb/s

Width                          : 1 280 pixels

Height                         : 726 pixels

Display aspect ratio           : 16:9

Frame rate mode                : Constant

Frame rate                     : 25.000 FPS

Color space                    : YUV

Chroma subsampling             : 4:2:0

Bit depth                      : 8 bits

Scan type                      : Progressive

Bits/(Pixel*Frame)             : 0.039

Stream size                    : 596 MiB (82%)

Title                          : GOPISAHI

Writing library                : x264 core 155 r2901 7d0ff22


Audio #1

Format                         : AAC

Format/Info                    : Advanced Audio Codec

Duration                       : 1 h 32 min

Bit rate                       : 96.0 kb/s

Channel(s)                     : 2 channels

Channel positions              : Front: L R

Sampling rate                  : 48.0 kHz

Frame rate                     : 46.875 FPS (1024 SPF)

Compression mode               : Lossy

Delay relative to video        : -21 ms

Stream size                    : 64.0 MiB (9%)

Title                          : GOPISAHI

Language                       : Hindi


Audio #2

Format                         : AAC

Format/Info                    : Advanced Audio Codec

Duration                       : 1 h 32 min

Bit rate                       : 96.0 kb/s

Channel(s)                     : 2 channels

Channel positions              : Front: L R

Sampling rate                  : 48.0 kHz

Frame rate                     : 46.875 FPS (1024 SPF)

Compression mode               : Lossy

Delay relative to video        : -21 ms

Stream size                    : 64.0 MiB (9%)

Title                          : GOPISAHI

Language                       : English


Category:Movies > Hollywood Dub
Lang:Hindi
Total Size:726.44 MB
Info Hash:809f54d3169c549d1f127bc97f3de833eabc956f
Added By:gopisahi
Date Added:11-10-2018 08:04:50
Views:307
Hits:13

Download Torrent

Ratings:Not Yet Rated (Log in to rate it)


Tracker:
udp://tracker.coppersurfer.tk:6969/announce


File List: 


Comments

No comments still posted

Powered by 10 Hamsters v2-svn -|- Page Generated In 0.289043 secs.
-|- RSS FEED
Theme By: Nikkbu