[Login] or [Signup]
Login
Username:
Password:
[Signup]
[Recover Account]


Poll


You must be logged in to view polls



Torrent Details For "Ant Man And The Wasp 2018 Hindi Dubbed Movie DVDRip x264 AAC MP4"

Ant Man And The Wasp 2018 Hindi Dubbed Movie DVDRip x264 AAC MP4

Download this torrent | Magnet Download
Health:
Seeds: 0
Leechers: 2
Completed:
Last Checked: 18-10-2018 12:04:49
External Torrent
Update Stats
Download Magnet


Poster


iMDB
Imdb Picture Title: Ant-Man and the Wasp
Year: 2018
Runtime: 118 minutes
Votes: 7296
Rating: 7.8/10
Language: English
Country: USA
All Genres: Action, Adventure, Sci-Fi
Plot Outline: In the aftermath of 'Captain America: Civil War,' Scott Lang grapples with the consequences of his choices as both a Super Hero and a father. As he struggles to re-balance his home life with his responsibilities as Ant-Man, he's confronted by Hope van Dyne and Dr. Hank Pym with an urgent new mission. Scott must once again put on the suit and learn to fight alongside The Wasp as the team works together to uncover secrets from their past. Written by Walt Disney Studios


Tagline: Real heroes. Not actual size.
Director: Peyton Reed
Writing By: Chris McKenna,Erik Sommers,Paul Rudd,Andrew Barrer,Gabriel Ferrari,
Produced By: Victoria Alonso,Mitchell Bell,Stephen Broussard,Louis D'Esposito,Kevin Feige,Stan Lee,Charles Newirth,Laura Stoltz,Lars P. Winther,Kevin R. Wright,
Music: Christophe Beck
Cast:
Paul Rudd as Scott Lang / Ant-Man
Evangeline Lilly as Hope Van Dyne / Wasp
Michael Peña as Luis
Walton Goggins as Sonny Burch
Bobby Cannavale as Paxton
Judy Greer as Maggie
T.I. as Dave
David Dastmalchian as Kurt
Hannah John-Kamen as Ava / Ghost
Abby Ryder Fortson as Cassie
Trailers:
"Fun" TV Spot
Official Trailer
Teaser Trailer


Watch-Free-HD     Download

Details
Name:Ant Man And The Wasp 2018 Hindi Dubbed Movie DVDRip x264 AAC MP4
Description:


[size="200"]Ant Man And The Wasp 2018 Hindi Dubbed Movie DVDRip x264 AAC MP4[/size]


[color='fuchsia'][size='medium']http://www.imdb.com/title/tt5095030/[/size][/color]




[code]
General
Complete name                            : Ant Man And The Wasp 2018 Hindi Dubbed Movie DVDRip x264 AAC MP4.mp4
Format                                   : MPEG-4
Format profile                           : Base Media
Codec ID                                 : isom (isom/iso2/avc1/mp42)
File size                                : 1.16 GiB
Duration                                 : 2 h 18 min
Overall bit rate                         : 1 197 kb/s
Writing application                      : Lavf55.33.100
Video
ID                                       : 1
Format                                   : AVC
Format/Info                              : Advanced Video Codec
Format profile                           : [email protected]
Format settings                          : CABAC / 4 Ref Frames
Format settings, CABAC                   : Yes
Format settings, RefFrames               : 4 frames
Format settings, GOP                     : M=3, N=25
Codec ID                                 : avc1
Codec ID/Info                            : Advanced Video Coding
Duration                                 : 2 h 18 min
Bit rate                                 : 1 000 kb/s
Width                                    : 1 280 pixels
Height                                   : 720 pixels
Display aspect ratio                     : 16:9
Frame rate mode                          : Constant
Frame rate                               : 25.000 FPS
Color space                              : YUV
Chroma subsampling                       : 4:2:0
Bit depth                                : 8 bits
Scan type                                : Progressive
Bits/(Pixel*Frame)                       : 0.043
Stream size                              : 987 MiB (83%)
Writing library                          : x264 core 132
Encoding settings                        : cabac=1 / ref=1 / deblock=1:0:0 / analyse=0x3:0x113 / me=hex / subme=2 / psy=1 / psy_rd=1.00:0.00 / mixed_ref=0 / me_range=16 / chroma_me=1 / trellis=1 / 8x8dct=1 / cqm=0 / deadzone=21,11 / fast_pskip=1 / chroma_qp_offset=0 / threads=4 / lookahead_threads=1 / sliced_threads=0 / nr=0 / decimate=1 / interlaced=0 / bluray_compat=0 / constrained_intra=0 / bframes=2 / b_pyramid=2 / b_adapt=1 / b_bias=0 / direct=1 / weightb=1 / open_gop=0 / weightp=1 / keyint=25 / keyint_min=13 / scenecut=40 / intra_refresh=0 / rc_lookahead=1 / rc=abr / mbtree=1 / bitrate=1000 / ratetol=0.1 / qcomp=0.60 / qpmin=1 / qpmax=35 / qpstep=2 / ip_ratio=1.40 / aq=1:1.00
Audio
ID                                       : 2
Format                                   : AAC
Format/Info                              : Advanced Audio Codec
Format profile                           : LC
Codec ID                                 : mp4a-40-2
Duration                                 : 2 h 18 min
Bit rate mode                            : Constant
Bit rate                                 : 192 kb/s
Channel(s)                               : 2 channels
Channel positions                        : Front: L R
Sampling rate                            : 44.1 kHz
Frame rate                               : 43.066 FPS (1024 SPF)
Compression mode                         : Lossy
Stream size                              : 190 MiB (16%)
Default                                  : Yes
Alternate group                          : 1
[/code]





















Category:Movies > Hollywood Dub
Lang:Hindi
Total Size:1.16 GB
Info Hash:a9b35e312e699290416fb87a81e9b9aaa48774f4
Added By:nlpmovie
Date Added:11-10-2018 07:25:19
Views:484
Hits:63

Download Torrent

Ratings:Not Yet Rated (Log in to rate it)

  


Tracker:
udp://tracker.coppersurfer.tk:6969/announce


File List: 


Comments

No comments still posted

Powered by 10 Hamsters v2-svn -|- Page Generated In 1.199950 secs.
-|- RSS FEED
Theme By: Nikkbu