[Login] or [Signup]
Login
Username:
Password:
[Signup]
[Recover Account]


Poll


You must be logged in to view polls



Torrent Details For "Sirfirein Looterey (2018 - South Hindi Dubbed) - 2CD - DTHRip[x264 - AC3(5.1Ch)]"

Sirfirein Looterey (2018 - South Hindi Dubbed) - 2CD - DTHRip[x264 - AC3(5.1Ch)]

Download this torrent | Magnet Download
Health:
Seeds: 56
Leechers: 45
Completed: 108 
Last Checked: 12-10-2018 08:55:32
External Torrent
Update Stats
Download Magnet


Poster


iMDB
Title: Kittu Unnadu Jagratha
Year: 2017
Runtime: 143 minutes
Votes: 67
Rating: 6.4/10
Language: Telugu
Director: Vamsy Krishna
Writing By: Sai Madhav Burra,Vamsy Krishna,Srikanth Vissa,
Produced By: Krishna kishore Garikipati,Sunkara Ramabrahmam,Anil Sunkara,
Cast:
Raj Tarun as Kittu
Anu Emmanuel as Janaki
Arbaaz Khan as AIR
Nagendra Babu as Janaki's father
Raghu Babu as Santhanam
Raghu Kumar Karumanchi as
Vennela Kishore as
Hamsa Nandini as
Prabhakar as
Praveen as


Watch-Free-HD     Download

Details
Name:Sirfirein Looterey (2018 - South Hindi Dubbed) - 2CD - DTHRip[x264 - AC3(5.1Ch)]
Description:
   Sirfirein Looterey (2018 - South Hindi Dubbed) -
2CD - DTHRip[x264 - AC3(5.1Ch)]    
 





General
Format                                   : Matroska
Format version                           : Version 4
File size                                : 1.40 GiB
Duration                                 : 2 h 19 min

Video
ID                                       : 1
Format                                   : AVC
Format/Info                              : Advanced Video Codec
Format profile                           : [email protected]
Format settings                          : CABAC / 4 Ref Frames
Format settings, CABAC                   : Yes
Format settings, RefFrames               : 4 frames
Codec ID                                 : V_MPEG4/ISO/AVC
Duration                                 : 2 h 19 min
Bit rate                                 : 1 248 kb/s
Width                                    : 720 pixels
Height                                   : 368 pixels
Display aspect ratio                     : 1.957
Frame rate mode                          : Constant
Frame rate                               : 25.000 FPS
Color space                              : YUV
Chroma subsampling                       : 4:2:0
Bit depth                                : 8 bits
Scan type                                : Progressive
Bits/(Pixel*Frame)                       : 0.188
Stream size                              : 1.21 GiB (87%)

Audio
ID                                       : 2
Format                                   : AC-3
Format/Info                              : Audio Coding 3
Commercial name                          : Dolby Digital
Codec ID                                 : A_AC3
Duration                                 : 2 h 19 min
Bit rate mode                            : Constant
Bit rate                                 : 192 kb/s
Channel(s)                               : 6 channels
Channel layout                           : L R C LFE Ls Rs
Sampling rate                            : 48.0 kHz
Stream size                              : 191 MiB (13%)
Language                                 : Hindi



 Thumbnail  



Category:Movies > South Dub
Lang:Hindi
Total Size:1.40 GB
Info Hash:2328e161e588da4d0eeeda7796d86b9699f5e028
Added By:CyberTron
Date Added:11-10-2018 07:15:09
Views:1,113
Hits:28

Download Torrent

Ratings:Not Yet Rated (Log in to rate it)

  


Tracker:
udp://tracker.trackerfix.com:80/announce


File List: 


Comments

No comments still posted

Powered by 10 Hamsters v2-svn -|- Page Generated In 1.246987 secs.
-|- RSS FEED
Theme By: Nikkbu