[Login] or [Signup]
Login
Username:
Password:
[Signup]
[Recover Account]


Poll


You must be logged in to view polls



Torrent Details For " L7 (2018 - Hindi Dubbed) - 1CD - HDRip[Mp4 - AAC3(5.1Ch)]"

L7 (2018 - Hindi Dubbed) - 1CD - HDRip[Mp4 - AAC3(5.1Ch)]

Download this torrent | Magnet Download
Health:
Seeds: 21
Leechers: 70
Completed: 51 
Last Checked: 12-10-2018 08:55:45
External Torrent
Update Stats
Download Magnet


Poster


iMDB
Title: L7
Year: 2016
Votes: 5
Rating: 3.8/10
Language: Telugu
Director: Mukund Pandey
Writing By: Mukund Pandey,Mukund Pandey,
Cast:
Ajay as
Adith Arun as
Pooja Jhaveri as
Jagadish Talasila as Baba


Watch-Free-HD     Download

Details
Name: L7 (2018 - Hindi Dubbed) - 1CD - HDRip[Mp4 - AAC3(5.1Ch)]
Description:
   L7 (2018 - Hindi Dubbed) - 1CD -
HDRip[Mp4 - AAC3(5.1Ch)]    
 





General
Format                                   : MPEG-4
Format profile                           : Base Media
Codec ID                                 : isom (isom)
File size                                : 700 MiB
Duration                                 : 2 h 9 min

Video
ID                                       : 1
Format                                   : AVC
Format/Info                              : Advanced Video Codec
Format profile                           : [email protected]
Format settings                          : CABAC / 4 Ref Frames
Format settings, CABAC                   : Yes
Format settings, RefFrames               : 4 frames
Codec ID                                 : avc1
Codec ID/Info                            : Advanced Video Coding
Duration                                 : 2 h 9 min
Bit rate                                 : 626 kb/s
Maximum bit rate                         : 3 280 kb/s
Width                                    : 720 pixels
Height                                   : 304 pixels
Display aspect ratio                     : 2.35:1
Frame rate mode                          : Constant
Frame rate                               : 25.000 FPS
Color space                              : YUV
Chroma subsampling                       : 4:2:0
Bit depth                                : 8 bits
Scan type                                : Progressive
Bits/(Pixel*Frame)                       : 0.114
Stream size                              : 579 MiB (83%)

Audio
ID                                       : 2
Format                                   : AAC LC SBR
Commercial name                          : HE-AAC
Format settings                          : Explicit
Codec ID                                 : mp4a-40-2
Duration                                 : 2 h 9 min
Bit rate mode                            : Variable
Bit rate                                 : 128 kb/s
Maximum bit rate                         : 138 kb/s
Channel(s)                               : 6 channels
Channel layout                           : C L R Ls Rs LFE
Sampling rate                            : 48.0 kHz
Stream size                              : 118 MiB (17%)



 Thumbnail  



Category:Movies > South Dub
Lang:Hindi
Total Size:700.47 MB
Info Hash:68805c08ec3864d8ea35b6db2b7620a2378a739b
Added By:CyberTron
Date Added:11-10-2018 05:19:16
Views:960
Hits:36

Download Torrent

Ratings:Not Yet Rated (Log in to rate it)

  


Tracker:
udp://tracker.trackerfix.com:80/announce


File List: 


Comments

No comments still posted

Powered by 10 Hamsters v2-svn -|- Page Generated In 0.411576 secs.
-|- RSS FEED
Theme By: Nikkbu