[Login] or [Signup]
Login
Username:
Password:
[Signup]
[Recover Account]


Poll


You must be logged in to view polls



Torrent Details For "L7 (2018) 720p Hindi Dubbed WEBHD x264 AAC 900MB [MovCr]"

L7 (2018) 720p Hindi Dubbed WEBHD x264 AAC 900MB [MovCr]

Download this torrent | Magnet Download
Health:
Seeds: 0
Leechers: 0
Completed:
Last Checked: 10-10-2018 20:12:40
External Torrent
Update Stats
Download Magnet


Poster


iMDB
Title: L7
Year: 2016
Votes: 5
Rating: 3.8/10
Language: Telugu
Director: Mukund Pandey
Writing By: Mukund Pandey,Mukund Pandey,
Cast:
Ajay as
Adith Arun as
Pooja Jhaveri as
Jagadish Talasila as Baba


Watch-Free-HD     Download

Details
Name:L7 (2018) 720p Hindi Dubbed WEBHD x264 AAC 900MB [MovCr]
Description:
Our Site   http://movcr.cc

L7 (2018) 720p Hindi Dubbed WEBHD x264 AAC 900MB [MovCr]



 http://www.imdb.com/title/tt6173444/

 


General
Unique ID                                : 68362177759340456214166597194580883766 (0x336E1396E1BE3418C593FD6E7229F936)
Complete name                            : www.MovCr.cc - L7 (2018) 720p Hindi Dubbed WEBHD x264 AAC 900MB [MovCr].mkv
Format                                   : Matroska
Format version                           : Version 4 / Version 2
File size                                : 921 MiB
Duration                                 : 1 h 46 min
Overall bit rate                         : 1 203 kb/s
Movie name                               : www.MovCr.cc
Encoded date                             : UTC 2018-10-10 19:05:43
Writing application                      : mkvmerge v26.0.0 ('In The Game') 64-bit
Writing library                          : libebml v1.3.6 + libmatroska v1.4.9

Video
ID                                       : 1
Format                                   : AVC
Format/Info                              : Advanced Video Codec
Format profile                           : [email protected]
Format settings                          : CABAC / 3 Ref Frames
Format settings, CABAC                   : Yes
Format settings, RefFrames               : 3 frames
Codec ID                                 : V_MPEG4/ISO/AVC
Duration                                 : 1 h 46 min
Bit rate                                 : 1 075 kb/s
Width                                    : 1 280 pixels
Height                                   : 720 pixels
Display aspect ratio                     : 16:9
Frame rate mode                          : Constant
Frame rate                               : 25.000 FPS
Color space                              : YUV
Chroma subsampling                       : 4:2:0
Bit depth                                : 8 bits
Scan type                                : Progressive
Bits/(Pixel*Frame)                       : 0.047
Stream size                              : 823 MiB (89%)
Title                                    : www.MovCr.cc
Default                                  : Yes
Forced                                   : No
Color range                              : Limited
Color primaries                          : BT.709
Transfer characteristics                 : BT.709
Matrix coefficients                      : BT.709

Audio
ID                                       : 2
Format                                   : AAC
Format/Info                              : Advanced Audio Codec
Format profile                           : LC
Codec ID                                 : A_AAC-2
Duration                                 : 1 h 46 min
Bit rate                                 : 126 kb/s
Channel(s)                               : 2 channels
Channel positions                        : Front: L R
Sampling rate                            : 44.1 kHz
Frame rate                               : 43.066 FPS (1024 SPF)
Compression mode                         : Lossy
Stream size                              : 96.1 MiB (10%)
Title                                    : www.MovCr.cc
Language                                 : Hindi
Default                                  : Yes
Forced                                   : No



 
 
 
 
 
 
 
Category:Movies > South Dub
Lang:Hindi
Total Size:920.53 MB
Info Hash:8bb78da3f3b101411d37e95aba36b40803c61162
Added By:MAZE
Date Added:10-10-2018 20:12:40
Views:846
Hits:91

Download Torrent

Ratings:Not Yet Rated (Log in to rate it)


Tracker:
udp://tracker.coppersurfer.tk:6969/announce


File List: 


Comments

No comments still posted

Powered by 10 Hamsters v2-svn -|- Page Generated In 1.146014 secs.
-|- RSS FEED
Theme By: Nikkbu