[Login] or [Signup]
Login
Username:
Password:
[Signup]
[Recover Account]


Poll


You must be logged in to view polls



Torrent Details For "Karenjit Kaur [Sunny Leone (2018 - Complete Season 2)] - 2CD - Bengali Web Series Rip[x264 - A..."

Karenjit Kaur [Sunny Leone (2018 - Complete Season 2)] - 2CD - Bengali Web Series Rip[x264 - A...

Download this torrent | Magnet Download
Health:
Seeds: 14
Leechers: 25
Completed: 25 
Last Checked: 12-10-2018 08:55:55
External Torrent
Update Stats
Download Magnet


Poster


Watch-Free-HD     Download

Details
Name:Karenjit Kaur [Sunny Leone (2018 - Complete Season 2)] - 2CD - Bengali Web Series Rip[x264 - A...
Description:
   Karenjit Kaur [Sunny Leone (2018 - Complete Season 2)]
- 2CD - Bengali Web Series Rip[x264 - AC3(5.1Ch)]    
 





General
Format                                   : Matroska
Format version                           : Version 4
File size                                : 1.40 GiB
Duration                                 : 2 h 21 min

Video
ID                                       : 1
Format                                   : AVC
Format/Info                              : Advanced Video Codec
Format profile                           : [email protected]
Format settings                          : CABAC / 4 Ref Frames
Format settings, CABAC                   : Yes
Format settings, RefFrames               : 4 frames
Codec ID                                 : V_MPEG4/ISO/AVC
Duration                                 : 2 h 21 min
Bit rate                                 : 1 224 kb/s
Width                                    : 720 pixels
Height                                   : 304 pixels
Display aspect ratio                     : 2.35:1
Frame rate mode                          : Constant
Frame rate                               : 25.000 FPS
Color space                              : YUV
Chroma subsampling                       : 4:2:0
Bit depth                                : 8 bits
Scan type                                : Progressive
Bits/(Pixel*Frame)                       : 0.224
Stream size                              : 1.21 GiB (86%)

Audio
ID                                       : 2
Format                                   : AC-3
Format/Info                              : Audio Coding 3
Commercial name                          : Dolby Digital
Codec ID                                 : A_AC3
Duration                                 : 2 h 21 min
Bit rate mode                            : Constant
Bit rate                                 : 192 kb/s
Channel(s)                               : 6 channels
Channel layout                           : L R C LFE Ls Rs
Sampling rate                            : 48.0 kHz
Stream size                              : 194 MiB (14%)

 Thumbnail  




Category:Movies > Bengali
Lang:Bengali  Bengali
Total Size:1.40 GB
Info Hash:d2f76e83fe7b47903eda86dd0e10ab8ff954ccb2
Added By:CyberTron
Date Added:10-10-2018 18:22:41
Views:135
Hits:11

Download Torrent

Ratings:Not Yet Rated (Log in to rate it)

  


Tracker:
udp://tracker.trackerfix.com:80/announce


File List: 


Comments

No comments still posted

Powered by 10 Hamsters v2-svn -|- Page Generated In 0.434270 secs.
-|- RSS FEED
Theme By: Nikkbu