[Login] or [Signup]
Login
Username:
Password:
[Signup]
[Recover Account]


Poll


You must be logged in to view polls



Torrent Details For "Sirfirein Looterey (2018 - Hindi Dubbed) - 1CD - DTHRip[x264 - AAC3(5.1Ch)]"

Sirfirein Looterey (2018 - Hindi Dubbed) - 1CD - DTHRip[x264 - AAC3(5.1Ch)]

Download this torrent | Magnet Download
Health:
Seeds: 62
Leechers: 236
Completed: 47 
Last Checked: 10-10-2018 20:39:20
External Torrent
Update Stats
Download Magnet


Poster


iMDB
Title: Kittu Unnadu Jagratha
Year: 2017
Runtime: 143 minutes
Votes: 67
Rating: 6.4/10
Language: Telugu
Director: Vamsy Krishna
Writing By: Sai Madhav Burra,Vamsy Krishna,Srikanth Vissa,
Produced By: Krishna kishore Garikipati,Sunkara Ramabrahmam,Anil Sunkara,
Cast:
Raj Tarun as Kittu
Anu Emmanuel as Janaki
Arbaaz Khan as AIR
Nagendra Babu as Janaki's father
Raghu Babu as Santhanam
Raghu Kumar Karumanchi as
Vennela Kishore as
Hamsa Nandini as
Prabhakar as
Praveen as


Watch-Free-HD     Download

Details
Name:Sirfirein Looterey (2018 - Hindi Dubbed) - 1CD - DTHRip[x264 - AAC3(5.1Ch)]
Description:
   Sirfirein Looterey (2018 - Hindi Dubbed) -
1CD - DTHRip[x264 - AAC3(5.1Ch)]    
 





General
Format                                   : Matroska
Format version                           : Version 4
File size                                : 700 MiB
Duration                                 : 2 h 19 min

Video
ID                                       : 1
Format                                   : AVC
Format/Info                              : Advanced Video Codec
Format profile                           : [email protected]
Format settings                          : CABAC / 4 Ref Frames
Format settings, CABAC                   : Yes
Format settings, RefFrames               : 4 frames
Codec ID                                 : V_MPEG4/ISO/AVC
Duration                                 : 2 h 19 min
Bit rate                                 : 573 kb/s
Width                                    : 640 pixels
Height                                   : 328 pixels
Display aspect ratio                     : 1.951
Frame rate mode                          : Constant
Frame rate                               : 25.000 FPS
Color space                              : YUV
Chroma subsampling                       : 4:2:0
Bit depth                                : 8 bits
Scan type                                : Progressive
Bits/(Pixel*Frame)                       : 0.109
Stream size                              : 570 MiB (82%)

Audio
ID                                       : 2
Format                                   : AAC LC SBR
Commercial name                          : HE-AAC
Format settings                          : Explicit
Codec ID                                 : A_AAC-2
Duration                                 : 2 h 19 min
Bit rate                                 : 128 kb/s
Channel(s)                               : 6 channels
Channel layout                           : C L R Ls Rs LFE
Sampling rate                            : 48.0 kHz
Stream size                              : 127 MiB (18%)



 Thumbnail  



Category:Movies > South Dub
Lang:Hindi
Total Size:699.71 MB
Info Hash:62940857b5e58605836037f2b5c976d6328f6420
Added By:CyberTron
Date Added:10-10-2018 16:31:33
Views:596
Hits:35

Download Torrent

Ratings:Not Yet Rated (Log in to rate it)

  


Tracker:
udp://tracker.trackerfix.com:80/announce


File List: 


Comments

No comments still posted

Powered by 10 Hamsters v2-svn -|- Page Generated In 0.556202 secs.
-|- RSS FEED
Theme By: Nikkbu