[Login] or [Signup]
Login
Username:
Password:
[Signup]
[Recover Account]


Poll


You must be logged in to view polls



Torrent Details For "Calendar Girls (2015) Hindi 720p NFRip x264 AC3 5.1-Sun George"

Calendar Girls (2015) Hindi 720p NFRip x264 AC3 5.1-Sun George

Download this torrent | Magnet Download
Health:
Seeds: 0
Leechers: 0
Completed:
Last Checked: 10-10-2018 13:51:30
External Torrent
Update Stats
Download Magnet


Poster


iMDB
Title: Calendar Girls
Year: 2015
Runtime: 131 minutes
Votes: 685
Rating: 4.1/10
Language: Hindi
Director: Madhur Bhandarkar
Writing By: Madhur Bhandarkar,Abhiruchi Chand,Anil Pandey,Rohit G. Banawlikar,Madhur Bhandarkar,Anil Pandey,Rohit G. Banawlikar,
Produced By: Krishna Ahir,Sangeeta Ahir,Aishwarya,Madhur Bhandarkar,Renu Bhandarkar,Vinay Chaukar,Kiran,Sanjay Mehta,
Music: Rohit Kulkarni
Cast:
Akanksha Puri as Nandita Menon
Avani Modi as Nazneen Malik
Kyra Dutt as Sharon Pinto
Ruhi Singh as Mayuri Chauhan
Satarupa Pyne as Paroma Ghosh
Karan Aanand as Palash Bose
Madhur Bhandarkar as Himself
Samiksha Bhatnagar as Sharda (Nandita's Sister)
Sanjay Gurbaxani as Channel Head
Kiran Kumar as Narang


Watch-Free-HD     Download

Details
Name:Calendar Girls (2015) Hindi 720p NFRip x264 AC3 5.1-Sun George
Description:
Calendar Girls (2015) Hindi 720p NFRip x264 AC3 5.1-Sun George







===================================================================

General
Format                      : Matroska
Format version              : Version 4 / Version 2
File size                   : 1.65 GiB
Duration                    : 2 h 5 min
Overall bit rate            : 1 876 kb/s
Movie name : Calendar Girls (2015) Hindi 720p NFRip x264 AC3 5.1-Sun George

===================================================================

Video
ID                          : 1
Format                      : AVC
Format/Info                 : Advanced Video Codec
Format profile              : [email protected]
Format settings             : 2 Ref Frames
Format settings, CABAC      : No
Format settings, ReFrames   : 2 frames
Codec ID                    : V_MPEG4/ISO/AVC
Duration                    : 2 h 5 min
Bit rate                    : 1 500 kb/s
Width                       : 1 280 pixels
Height                      : 544 pixels
Display aspect ratio        : 2.35:1
Frame rate mode             : Constant
Frame rate                  : 25.000 FPS
Color space                 : YUV
Chroma subsampling          : 4:2:0
Bit depth                   : 8 bits
Scan type                   : Progressive
Bits/(Pixel*Frame)          : 0.086
Stream size                 : 1.28 GiB (78%)
Title                       : Sun George

===================================================================

Audio
ID                          : 2
Format                      : AC-3
Format/Info                 : Audio Coding 3
Codec ID                    : A_AC3
Duration                    : 2 h 5 min
Bit rate mode               : Constant
Bit rate                    : 384 kb/s
Channel(s)                  : 6 channels
Channel positions           : Front: L C R, Side: L R, LFE
Sampling rate               : 48.0 kHz
Frame rate                  : 31.250 FPS (1536 SPF)
Bit depth                   : 16 bits
Compression mode            : Lossy
Delay relative to video     : -21 ms
Stream size                 : 345 MiB (20%)
Title                       : Sun George
Language                    : Hindi
Service kind                : Complete Main
Default                     : Yes
Forced                      : No




 

 

 

 

 

 

 

 

 

 

 
Category:Movies > Bollywood
Lang:Hindi
Total Size:1.67 GB
Info Hash:4962fdad3bad491445535cf1af7a8ec36ffc3be4
Added By:sungeorge
Date Added:10-10-2018 13:51:30
Views:738
Hits:31

Download Torrent

Ratings:Not Yet Rated (Log in to rate it)

  


Tracker:
udp://tracker.pirateparty.gr:6969/announce


File List: 



NFO:

Comments

No comments still posted

Powered by 10 Hamsters v2-svn -|- Page Generated In 1.495366 secs.
-|- RSS FEED
Theme By: Nikkbu