[Login] or [Signup]
Login
Username:
Password:
[Signup]
[Recover Account]


Poll


You must be logged in to view polls



Torrent Details For "Venom 2018 HDTS x264 AAC [MW]"

Venom 2018 HDTS x264 AAC [MW]

Download this torrent | Magnet Download
Health:
Seeds: 327
Leechers: 196
Completed: 2,251 
Last Checked: 10-10-2018 08:04:28
External Torrent
Update Stats
Download Magnet


Poster
No poster


Watch-Free-HD     Download

Details
Name:Venom 2018 HDTS x264 AAC [MW]
Description:

 


General
Format                                   : Matroska
Format version                           : Version 4 / Version 2
File size                                : 853 MiB
Duration                                 : 1 h 29 min
Overall bit rate                         : 1 335 kb/s

Video
ID                                       : 1
Format                                   : AVC
Format/Info                              : Advanced Video Codec
Format profile                           : [email protected]
Format settings                          : CABAC / 5 Ref Frames
Format settings, CABAC                   : Yes
Format settings, RefFrames               : 5 frames
Codec ID                                 : V_MPEG4/ISO/AVC
Duration                                 : 1 h 29 min
Bit rate                                 : 1 200 kb/s
Width                                    : 720 pixels
Height                                   : 304 pixels
Display aspect ratio                     : 2.35:1
Frame rate mode                          : Constant
Frame rate                               : 29.970 (30000/1001) FPS
Color space                              : YUV
Chroma subsampling                       : 4:2:0
Bit depth                                : 8 bits
Scan type                                : Progressive
Bits/(Pixel*Frame)                       : 0.183
Stream size                              : 770 MiB (90%)
Writing library                          : x264 core 155 r2901 7d0ff22
Default                                  : Yes
Forced                                   : No

Audio
ID                                       : 2
Format                                   : AAC
Format/Info                              : Advanced Audio Codec
Format profile                           : LC
Codec ID                                 : A_AAC-2
Duration                                 : 1 h 29 min
Bit rate                                 : 128 kb/s
Channel(s)                               : 2 channels
Channel positions                        : Front: L R
Sampling rate                            : 48.0 kHz
Frame rate                               : 46.875 FPS (1024 SPF)
Compression mode                         : Lossy
Stream size                              : 82.1 MiB (10%)
Language                                 : English
Default                                  : Yes
Forced                                   : No


 http://pichub.site/image/dak7y
 http://pichub.site/image/dahOV
 http://pichub.site/image/dayZ0
 http://pichub.site/image/daiAT
 http://pichub.site/image/da8fD
 http://pichub.site/image/dat6N

Category:Movies > Pre-Releases
Lang:English  English
Total Size:853.31 MB
Info Hash:803d8f706a5e3c68100c4e6a24075fa1540c5f9d
Added By:Freaky
Date Added:09-10-2018 18:48:31
Views:137
Hits:7

Download Torrent

Ratings:Not Yet Rated (Log in to rate it)


Tracker:
udp://tracker.coppersurfer.tk:6969/announce


File List: 


Comments

No comments still posted

Powered by 10 Hamsters v2-svn -|- Page Generated In 0.152511 secs.
-|- RSS FEED
Theme By: Nikkbu