[Login] or [Signup]
Login
Username:
Password:
[Signup]
[Recover Account]


Poll


You must be logged in to view polls



Torrent Details For "SEIZER (2018) 720p Hindi Dubbed WEBHD x264 AAC 1.3GB - [MovCr]"

SEIZER (2018) 720p Hindi Dubbed WEBHD x264 AAC 1.3GB - [MovCr]

Download this torrent | Magnet Download
Health:
Seeds: 1,732
Leechers: 2,606
Completed: 2,835 
Last Checked: 10-10-2018 08:02:44
External Torrent
Update Stats
Download Magnet


Poster


Watch-Free-HD     Download

Details
Name:SEIZER (2018) 720p Hindi Dubbed WEBHD x264 AAC 1.3GB - [MovCr]
Description:
Our Site   http://movcr.cc


SEIZER (2018) 720p Hindi Dubbed WEBHD x264 AAC 1.3GB - [MovCr]

 


General
Unique ID                                : 1333605577135189329429691505067663772 (0x100D7D4D836D1E579CB125F3D33A19C)
Complete name                            : www.MovCr.cc - SEIZER (2018) 720p Hindi Dubbed WEBHD x264 AAC 1.3GB - [MovCr].mkv
Format                                   : Matroska
Format version                           : Version 4 / Version 2
File size                                : 1.39 GiB
Duration                                 : 1 h 57 min
Overall bit rate                         : 1 692 kb/s
Movie name                               : www.MovCr.cc
Encoded date                             : UTC 2018-10-09 15:54:31
Writing application                      : mkvmerge v26.0.0 ('In The Game') 64-bit
Writing library                          : libebml v1.3.6 + libmatroska v1.4.9

Video
ID                                       : 1
Format                                   : AVC
Format/Info                              : Advanced Video Codec
Format profile                           : [email protected]
Format settings                          : CABAC / 3 Ref Frames
Format settings, CABAC                   : Yes
Format settings, RefFrames               : 3 frames
Codec ID                                 : V_MPEG4/ISO/AVC
Duration                                 : 1 h 57 min
Bit rate                                 : 1 564 kb/s
Width                                    : 1 280 pixels
Height                                   : 720 pixels
Display aspect ratio                     : 16:9
Frame rate mode                          : Constant
Frame rate                               : 24.038 FPS
Color space                              : YUV
Chroma subsampling                       : 4:2:0
Bit depth                                : 8 bits
Scan type                                : Progressive
Bits/(Pixel*Frame)                       : 0.071
Stream size                              : 1.29 GiB (92%)
Title                                    : www.MovCr.cc
Default                                  : Yes
Forced                                   : No
Color range                              : Limited
Color primaries                          : BT.709
Transfer characteristics                 : BT.709
Matrix coefficients                      : BT.709

Audio
ID                                       : 2
Format                                   : AAC
Format/Info                              : Advanced Audio Codec
Format profile                           : LC
Codec ID                                 : A_AAC-2
Duration                                 : 1 h 57 min
Bit rate                                 : 126 kb/s
Channel(s)                               : 2 channels
Channel positions                        : Front: L R
Sampling rate                            : 44.1 kHz
Frame rate                               : 43.066 FPS (1024 SPF)
Compression mode                         : Lossy
Stream size                              : 106 MiB (7%)
Title                                    : www.MovCr.cc
Language                                 : Hindi
Default                                  : Yes
Forced                                   : No




 
 
 
 
 
 
 
 
Category:Movies > South Dub
Lang:Hindi
Total Size:1.39 GB
Info Hash:1cb1cfc9a45894e90da1dd51c0bc3aaf180e9783
Added By:MAZE
Date Added:09-10-2018 17:07:53
Views:1,631
Hits:130

Download Torrent

Ratings:Not Yet Rated (Log in to rate it)


Tracker:
udp://tracker.coppersurfer.tk:6969/announce


File List: 


Comments

No comments still posted

Powered by 10 Hamsters v2-svn -|- Page Generated In 1.375729 secs.
-|- RSS FEED
Theme By: Nikkbu