[Login] or [Signup]
Login
Username:
Password:
[Signup]
[Recover Account]


Poll


You must be logged in to view polls



Torrent Details For "Teenage Mutant Ninja Turtles 2014 720p BluRay x264 Dual Audio [Hindi DD 5.1 - English 2.0] ESub..."

Teenage Mutant Ninja Turtles 2014 720p BluRay x264 Dual Audio [Hindi DD 5.1 - English 2.0] ESub...

Download this torrent | Magnet Download
Health:
Seeds: 240
Leechers: 242
Completed: 609 
Last Checked: 10-10-2018 08:04:37
External Torrent
Update Stats
Download Magnet


Poster
No poster


Watch-Free-HD     Download

Details
Name:Teenage Mutant Ninja Turtles 2014 720p BluRay x264 Dual Audio [Hindi DD 5.1 - English 2.0] ESub...
Description:

 


General
Format                                   : Matroska
Format version                           : Version 4 / Version 2
File size                                : 1.59 GiB
Duration                                 : 1 h 41 min
Overall bit rate                         : 2 250 kb/s

Video
ID                                       : 1
Format                                   : AVC
Format/Info                              : Advanced Video Codec
Format profile                           : [email protected]
Format settings                          : CABAC / 4 Ref Frames
Format settings, CABAC                   : Yes
Format settings, RefFrames               : 4 frames
Codec ID                                 : V_MPEG4/ISO/AVC
Duration                                 : 1 h 41 min
Bit rate                                 : 1 500 kb/s
Width                                    : 1 280 pixels
Height                                   : 534 pixels
Display aspect ratio                     : 2.40:1
Original display aspect ratio            : 2.40:1
Frame rate mode                          : Constant
Frame rate                               : 23.976 (23976/1000) FPS
Color space                              : YUV
Chroma subsampling                       : 4:2:0
Bit depth                                : 8 bits
Scan type                                : Progressive
Bits/(Pixel*Frame)                       : 0.092
Stream size                              : 1.06 GiB (67%)
Writing library                          : x264 core 152 r2851M ba24899
Default                                  : Yes
Forced                                   : No

Audio #1
ID                                       : 2
Format                                   : E-AC-3
Format/Info                              : Enhanced Audio Coding 3
Codec ID                                 : A_EAC3
Duration                                 : 1 h 41 min
Bit rate mode                            : Constant
Bit rate                                 : 640 kb/s
Channel(s)                               : 6 channels
Channel positions                        : Front: L C R, Side: L R, LFE
Sampling rate                            : 48.0 kHz
Frame rate                               : 187.500 FPS (256 SPF)
Compression mode                         : Lossy
Stream size                              : 464 MiB (28%)
Language                                 : Hindi
Service kind                             : Complete Main
Default                                  : Yes
Forced                                   : Yes

Audio #2
ID                                       : 3
Format                                   : AAC
Format/Info                              : Advanced Audio Codec
Format profile                           : LC
Codec ID                                 : A_AAC-2
Duration                                 : 1 h 41 min
Bit rate                                 : 96.0 kb/s
Channel(s)                               : 2 channels
Channel positions                        : Front: L R
Sampling rate                            : 48.0 kHz
Frame rate                               : 46.875 FPS (1024 SPF)
Compression mode                         : Lossy
Stream size                              : 69.6 MiB (4%)
Language                                 : English
Default                                  : No
Forced                                   : No

Text #1
ID                                       : 4
Format                                   : VobSub
Muxing mode                              : zlib
Codec ID                                 : S_VOBSUB
Codec ID/Info                            : Picture based subtitle format used on DVDs
Duration                                 : 1 h 33 min
Bit rate                                 : 5 873 b/s
Count of elements                        : 1307
Stream size                              : 3.92 MiB (0%)
Language                                 : English
Default                                  : Yes
Forced                                   : No


 http://pichub.site/image/dYfmV
 http://pichub.site/image/dYYYN
 http://pichub.site/image/dYazD
 http://pichub.site/image/dYOjg
 http://pichub.site/image/dYI2Z
 http://pichub.site/image/dYSwI

Category:Movies > Hollywood Dub
Lang:Hindi
Total Size:1.59 GB
Info Hash:222367a8498f7542d69bbc0acca1be297a83e3a5
Added By:Freaky
Date Added:09-10-2018 10:54:37
Views:343
Hits:58

Download Torrent

Ratings:Not Yet Rated (Log in to rate it)


Tracker:
udp://tracker.coppersurfer.tk:6969/announce


File List: 


Comments

No comments still posted

Powered by 10 Hamsters v2-svn -|- Page Generated In 0.610827 secs.
-|- RSS FEED
Theme By: Nikkbu