[Login] or [Signup]
Login
Username:
Password:
[Signup]
[Recover Account]


Poll


You must be logged in to view polls



Torrent Details For "Aliens 1986 Special Edition 720p BluRay x264 Dual Audio [Hindi - English 2.0] ESub [MW]"

Aliens 1986 Special Edition 720p BluRay x264 Dual Audio [Hindi - English 2.0] ESub [MW]

Download this torrent | Magnet Download
Health:
Seeds: 326
Leechers: 327
Completed: 910 
Last Checked: 10-10-2018 08:04:39
External Torrent
Update Stats
Download Magnet


Poster
No poster


Watch-Free-HD     Download

Details
Name:Aliens 1986 Special Edition 720p BluRay x264 Dual Audio [Hindi - English 2.0] ESub [MW]
Description:

 


General
Format                                   : Matroska
Format version                           : Version 4 / Version 2
File size                                : 1.86 GiB
Duration                                 : 2 h 34 min
Overall bit rate                         : 1 726 kb/s

Video
ID                                       : 1
Format                                   : AVC
Format/Info                              : Advanced Video Codec
Format profile                           : [email protected]
Format settings                          : CABAC / 4 Ref Frames
Format settings, CABAC                   : Yes
Format settings, RefFrames               : 4 frames
Codec ID                                 : V_MPEG4/ISO/AVC
Duration                                 : 2 h 34 min
Bit rate                                 : 1 500 kb/s
Width                                    : 1 280 pixels
Height                                   : 694 pixels
Display aspect ratio                     : 1.85:1
Frame rate mode                          : Constant
Frame rate                               : 23.976 (23976/1000) FPS
Color space                              : YUV
Chroma subsampling                       : 4:2:0
Bit depth                                : 8 bits
Scan type                                : Progressive
Bits/(Pixel*Frame)                       : 0.070
Stream size                              : 1.62 GiB (87%)
Writing library                          : x264 core 152 r2851M ba24899
Default                                  : Yes
Forced                                   : No

Audio #1
ID                                       : 2
Format                                   : AAC
Format/Info                              : Advanced Audio Codec
Format profile                           : LC
Codec ID                                 : A_AAC-2
Duration                                 : 2 h 34 min
Bit rate                                 : 128 kb/s
Channel(s)                               : 2 channels
Channel positions                        : Front: L R
Sampling rate                            : 48.0 kHz
Frame rate                               : 46.875 FPS (1024 SPF)
Compression mode                         : Lossy
Stream size                              : 141 MiB (7%)
Language                                 : Hindi
Default                                  : Yes
Forced                                   : No

Audio #2
ID                                       : 3
Format                                   : AAC
Format/Info                              : Advanced Audio Codec
Format profile                           : LC
Codec ID                                 : A_AAC-2
Duration                                 : 2 h 34 min
Bit rate                                 : 96.0 kb/s
Channel(s)                               : 2 channels
Channel positions                        : Front: L R
Sampling rate                            : 48.0 kHz
Frame rate                               : 46.875 FPS (1024 SPF)
Compression mode                         : Lossy
Stream size                              : 106 MiB (6%)
Language                                 : English
Default                                  : No
Forced                                   : No

Text
ID                                       : 4
Format                                   : UTF-8
Codec ID                                 : S_TEXT/UTF8
Codec ID/Info                            : UTF-8 Plain Text
Duration                                 : 2 h 26 min
Bit rate                                 : 45 b/s
Count of elements                        : 1425
Stream size                              : 49.3 KiB (0%)
Default                                  : Yes
Forced                                   : No


 http://pichub.site/image/dMHYY
 http://pichub.site/image/dMF2t
 http://pichub.site/image/dMbkp
 http://pichub.site/image/dMQj4
 http://pichub.site/image/dMjHb
 http://pichub.site/image/dMexy

Category:Movies > Hollywood Dub
Lang:Hindi
Total Size:1.86 GB
Info Hash:092beff5de627894aabfdc6e6eaafbd41b328601
Added By:Freaky
Date Added:09-10-2018 10:26:27
Views:522
Hits:46

Download Torrent

Ratings:Not Yet Rated (Log in to rate it)


Tracker:
udp://tracker.coppersurfer.tk:6969/announce


File List: 


Comments

No comments still posted

Powered by 10 Hamsters v2-svn -|- Page Generated In 0.585684 secs.
-|- RSS FEED
Theme By: Nikkbu