[Login] or [Signup]
Login
Username:
Password:
[Signup]
[Recover Account]


Poll


You must be logged in to view polls



Torrent Details For "Doll's House (2018) - 1CD - Bengali Web Series Rip[Mp4 - AAC3(5.1Ch)]"

Doll's House (2018) - 1CD - Bengali Web Series Rip[Mp4 - AAC3(5.1Ch)]

Download this torrent | Magnet Download
Health:
Seeds: 19
Leechers: 5
Completed: 41 
Last Checked: 10-10-2018 14:43:03
External Torrent
Update Stats
Download Magnet


Poster


Watch-Free-HD     Download

Details
Name:Doll's House (2018) - 1CD - Bengali Web Series Rip[Mp4 - AAC3(5.1Ch)]
Description:
   Doll's House (2018) - 1CD - Bengali
Web Series Rip[Mp4 - AAC3(5.1Ch)]    
 





General
Format                                   : MPEG-4
Format profile                           : Base Media
Codec ID                                 : isom (isom)
File size                                : 700 MiB
Duration                                 : 2 h 31

Video
ID                                       : 1
Format                                   : AVC
Format/Info                              : Advanced Video Codec
Format profile                           : [email protected]
Format settings                          : CABAC / 4 Ref Frames
Format settings, CABAC                   : Yes
Format settings, RefFrames               : 4 frames
Codec ID                                 : avc1
Codec ID/Info                            : Advanced Video Coding
Duration                                 : 2 h 31 min
Bit rate                                 : 581 kb/s
Maximum bit rate                         : 1 909 kb/s
Width                                    : 640 pixels
Height                                   : 352 pixels
Display aspect ratio                     : 16:9
Frame rate mode                          : Constant
Frame rate                               : 25.000 FPS
Color space                              : YUV
Chroma subsampling                       : 4:2:0
Bit depth                                : 8 bits
Scan type                                : Progressive
Bits/(Pixel*Frame)                       : 0.103
Stream size                              : 628 MiB (90%)

Audio
ID                                       : 2
Format                                   : AAC LC SBR
Commercial name                          : HE-AAC
Format settings                          : Explicit
Codec ID                                 : mp4a-40-2
Duration                                 : 2 h 31 min
Bit rate mode                            : Variable
Bit rate                                 : 63.8 kb/s
Maximum bit rate                         : 71.4 kb/s
Channel(s)                               : 6 channels
Channel layout                           : C L R Ls Rs LFE
Sampling rate                            : 48.0 kHz
Stream size                              : 68.9 MiB (10%)



 Thumbnail  

Category:Movies > Bengali
Lang:Bengali  Bengali
Total Size:700.34 MB
Info Hash:7829b06089166ced8f2619e6540b61c494b37ba9
Added By:CyberTron
Date Added:08-10-2018 19:36:44
Views:468
Hits:32

Download Torrent

Ratings:Not Yet Rated (Log in to rate it)

  


Tracker:
udp://tracker.trackerfix.com:80/announce


File List: 


Comments

No comments still posted

Powered by 10 Hamsters v2-svn -|- Page Generated In 0.250726 secs.
-|- RSS FEED
Theme By: Nikkbu