[Login] or [Signup]
Login
Username:
Password:
[Signup]
[Recover Account]


Poll


You must be logged in to view polls



Torrent Details For "Khoka 420 (2013)) Bengali Movie - 2CD - HDTVRip[x264 - AC3(5.1Ch)] "

Khoka 420 (2013)) Bengali Movie - 2CD - HDTVRip[x264 - AC3(5.1Ch)]

Download this torrent | Magnet Download
Health:
Seeds: 19
Leechers: 33
Completed: 30 
Last Checked: 10-10-2018 14:43:11
External Torrent
Update Stats
Download Magnet


Poster


iMDB
Title: Khoka 420
Year: 2013
Runtime: 158 minutes
Votes: 154
Rating: 4.9/10
Language: Bengali
Director: Rajib Biswas

Music: Rishi Chanda Savvy Gupta Shree Pritam
Cast:
Dev as Krish
Subhasree Ganguly as Bhoomi
Nusrat Jahan as Megha
Joy Badlani as
Aritro Dutta Banik as
Haradhan Bannerjee as
Shubhajit Bhowmik as
Parthasarathi Chakraborty as
Debesh Roy Chowdhury as
Arindam Dutta as


Watch-Free-HD     Download

Details
Name:Khoka 420 (2013)) Bengali Movie - 2CD - HDTVRip[x264 - AC3(5.1Ch)]
Description:
   Khoka 420 (2013)) Bengali Movie - 2CD -
HDTVRip[x264 - AC3(5.1Ch)]    
 







General
Format                                   : Matroska
Format version                           : Version 4
File size                                : 1.40 GiB
Duration                                 : 2 h 41 min

Video
ID                                       : 1
Format                                   : AVC
Format/Info                              : Advanced Video Codec
Format profile                           : [email protected]
Format settings                          : CABAC / 4 Ref Frames
Format settings, CABAC                   : Yes
Format settings, RefFrames               : 4 frames
Codec ID                                 : V_MPEG4/ISO/AVC
Duration                                 : 2 h 41 min
Bit rate                                 : 1 045 kb/s
Width                                    : 720 pixels
Height                                   : 304 pixels
Display aspect ratio                     : 2.35:1
Frame rate mode                          : Constant
Frame rate                               : 25.000 FPS
Color space                              : YUV
Chroma subsampling                       : 4:2:0
Bit depth                                : 8 bits
Scan type                                : Progressive
Bits/(Pixel*Frame)                       : 0.191
Stream size                              : 1.18 GiB (84%)

Audio
ID                                       : 2
Format                                   : AC-3
Format/Info                              : Audio Coding 3
Commercial name                          : Dolby Digital
Codec ID                                 : A_AC3
Duration                                 : 2 h 41 min
Bit rate mode                            : Constant
Bit rate                                 : 192 kb/s
Channel(s)                               : 6 channels
Channel layout                           : L R C LFE Ls Rs
Sampling rate                            : 48.0 kHz
Stream size                              : 222 MiB (15%)

 Thumbnail  



Category:Movies > Bengali
Lang:Bengali  Bengali
Total Size:1.40 GB
Info Hash:806a8fcaff6d31ffbe504a25cd7df43ed1697603
Added By:CyberTron
Date Added:08-10-2018 15:12:01
Views:157
Hits:16

Download Torrent

Ratings:Not Yet Rated (Log in to rate it)

  


Tracker:
udp://tracker.trackerfix.com:80/announce


File List: 


Comments

No comments still posted

Powered by 10 Hamsters v2-svn -|- Page Generated In 0.827391 secs.
-|- RSS FEED
Theme By: Nikkbu