[Login] or [Signup]
Login
Username:
Password:
[Signup]
[Recover Account]


Poll


You must be logged in to view polls



Torrent Details For "Shotru (2011) Bengali Movie - 2CD - HDTVRip[x264 - AC3(5.1Ch)]"

Shotru (2011) Bengali Movie - 2CD - HDTVRip[x264 - AC3(5.1Ch)]

Download this torrent | Magnet Download
Health:
Seeds: 0
Leechers: 15
Completed: 17 
Last Checked: 05-11-2018 04:38:34
External Torrent
Update Stats
Download Magnet


Poster


iMDB
Title: Shatru
Year: 2011
Votes: 141
Rating: 6.3/10
Language: Bengali, English
Director: Raj Chakraborty
Writing By: Abhimanyu Mukherjee,Abhimanyu Mukherjee,
Produced By: Ashok Kumar Dhanuka,Swapan Kumar Ghosh,
Music: Indraadip Dasgupta
Cast:
Jeet as Inspector Dibakar Singha
Nusrat Jahan as Pooja
Haradhan Bannerjee as
Debika Mitra as
Swagata Bose as
Kharaj Mukherjee as Bhajan
Supriyo Dutta as Arjun Sarkar
Dipankar Dey as Singha
Biplab Chatterjee as
Biswajit Chakraborty as


Watch-Free-HD     Download

Details
Name:Shotru (2011) Bengali Movie - 2CD - HDTVRip[x264 - AC3(5.1Ch)]
Description:
   Shotru (2011) Bengali Movie - 2CD -
HDTVRip[x264 - AC3(5.1Ch)]  
 







General
Format                                   : Matroska
Format version                           : Version 2
File size                                : 1.40 GiB
Duration                                 : 3 h 0 min

Video
ID                                       : 1
Format                                   : AVC
Format/Info                              : Advanced Video Codec
Format profile                           : [email protected]
Format settings                          : CABAC / 4 Ref Frames
Format settings, CABAC                   : Yes
Format settings, RefFrames               : 4 frames
Codec ID                                 : V_MPEG4/ISO/AVC
Duration                                 : 3 h 0 min
Bit rate                                 : 919 kb/s
Width                                    : 720 pixels
Height                                   : 304 pixels
Display aspect ratio                     : 2.35:1
Frame rate mode                          : Constant
Frame rate                               : 25.000 FPS
Color space                              : YUV
Chroma subsampling                       : 4:2:0
Bit depth                                : 8 bits
Scan type                                : Progressive
Bits/(Pixel*Frame)                       : 0.168
Stream size                              : 1.16 GiB (83%)

Audio
ID                                       : 2
Format                                   : AC-3
Format/Info                              : Audio Coding 3
Commercial name                          : Dolby Digital
Codec ID                                 : A_AC3
Duration                                 : 3 h 0 min
Bit rate mode                            : Constant
Bit rate                                 : 192 kb/s
Channel(s)                               : 6 channels
Channel layout                           : L R C LFE Ls Rs
Sampling rate                            : 48.0 kHz
Stream size                              : 248 MiB (17%)


 Thumbnail  





Category:Movies > Bengali
Lang:Bengali  Bengali
Total Size:1.40 GB
Info Hash:9e160e6210f31fe8e200b837e52379de25c5c748
Added By:CyberTron
Date Added:08-10-2018 13:17:11
Views:236
Hits:19

Download Torrent

Ratings:Not Yet Rated (Log in to rate it)

  


Tracker:
udp://tracker.trackerfix.com:80/announce


File List: 


Comments

No comments still posted

Powered by 10 Hamsters v2-svn -|- Page Generated In 0.594394 secs.
-|- RSS FEED
Theme By: Nikkbu