[Login] or [Signup]
Login
Username:
Password:
[Signup]
[Recover Account]


Poll


You must be logged in to view polls



Torrent Details For "Chalo (2018) 720p - UnCut - HDRip - x264 - [Hindi + Telugu] - 1.4GB - MovCr"

Chalo (2018) 720p - UnCut - HDRip - x264 - [Hindi + Telugu] - 1.4GB - MovCr

Download this torrent | Magnet Download
Health:
Seeds: 1,671
Leechers: 884
Completed: 4,928 
Last Checked: 09-10-2018 13:16:44
External Torrent
Update Stats
Download Magnet


Poster


iMDB
Imdb Picture Title: Chalo
Year: 2018
Runtime: 145 minutes
Votes: 323
Rating: 6.9/10
Language: Telugu
Country: India
All Genres: Action, Comedy, Family, Romance
Plot Outline: The film revolves around a village called "Tiruppuram" which is divided into half by the Tamil and Telugu people. Neither of the groups cross and enter the other's perimeter.


Director: Venky Kudumula
Writing By: Venky Kudumula,Venky Kudumula,Venky Kudumula,
Produced By: Usha Mulpuri,
Music: Sagar Mahati
Cast:
Naga Shaurya as Hari
Rashmika Mandanna as Kartika
Achyuth Kumar as Kesavulu
Mime Gopi as Veeramuthu
Raghu Babu as Paramathma
Venu Gopal as
Viva Harsha as
Jeeva as
Vennela Kishore as
V.K. Naresh as
Trailers:
Chalo trailer


Watch-Free-HD     Download

Details
Name:Chalo (2018) 720p - UnCut - HDRip - x264 - [Hindi + Telugu] - 1.4GB - MovCr
Description:
http://movcr.cc


Chalo (2018) 720p - UnCut - HDRip - x264 - - 1.4GB - MovCr
NO WATERMARKS & AUDIO TAGS


First On Net Exclusive Release..Visit Our WEBSITE



Video
ID : 1
Format : AVC
Format/Info : Advanced Video Codec
Format profile : [email protected]
Format settings : CABAC / 4 Ref Frames
Format settings, CABAC : Yes
Format settings, RefFrames : 4 frames
Codec ID : V_MPEG4/ISO/AVC
Duration : 2 h 19 min
Bit rate : 1 176 kb/s
Width : 1 280 pixels
Height : 544 pixels
Display aspect ratio : 2.35:1
Frame rate mode : Constant
Frame rate : 30.000 FPS
Color space : YUV
Chroma subsampling : 4:2:0
Bit depth : 8 bits
Scan type : Progressive
Bits/(Pixel*Frame) : 0.056
Stream size : 1.14 GiB (82%)
Title : www.MovCr.cc
Writing library : x264 core 155 r2901 7d0ff22
Encoding settings : cabac=1 / ref=1 / deblock=1:0:0 / analyse=0x3:0x113 / me=hex / subme=2 / psy=1 / psy_rd=1.00:0.00 / mixed_ref=0 / me_range=16 / chroma_me=1 / trellis=0 / 8x8dct=1 / cqm=0 / deadzone=21,11 / fast_pskip=1 / chroma_qp_offset=0 / threads=12 / lookahead_threads=4 / sliced_threads=0 / nr=0 / decimate=1 / interlaced=0 / bluray_compat=0 / constrained_intra=0 / bframes=3 / b_pyramid=2 / b_adapt=1 / b_bias=0 / direct=1 / weightb=1 / open_gop=0 / weightp=1 / keyint=300 / keyint_min=30 / scenecut=40 / intra_refresh=0 / rc_lookahead=10 / rc=abr / mbtree=1 / bitrate=1176 / ratetol=1.0 / qcomp=0.60 / qpmin=0 / qpmax=69 / qpstep=4 / vbv_maxrate=62500 / vbv_bufsize=78125 / nal_hrd=none / filler=0 / ip_ratio=1.40 / aq=1:1.00
Default : Yes
Forced : No
Color range : Limited
Color primaries : BT.709
Transfer characteristics : BT.709
Matrix coefficients : BT.709

Audio #1
ID : 2
Format : MPEG Audio
Format version : Version 1
Format profile : Layer 3
Format settings : Joint stereo / MS Stereo
Codec ID : A_MPEG/L3
Codec ID/Hint : MP3
Duration : 2 h 19 min
Bit rate mode : Constant
Bit rate : 128 kb/s
Channel(s) : 2 channels
Sampling rate : 44.1 kHz
Frame rate : 38.281 FPS (1152 SPF)
Compression mode : Lossy
Delay relative to video : -23 ms
Stream size : 127 MiB (9%)
Title : www.MovCr.cc
Language : Hindi
Default : Yes
Forced : No

Audio #2
ID : 3
Format : AAC LC
Format/Info : Advanced Audio Codec Low Complexity
Codec ID : A_AAC-2
Duration : 2 h 19 min
Bit rate : 128 kb/s
Channel(s) : 2 channels
Channel layout : L R
Sampling rate : 44.1 kHz
Frame rate : 43.066 FPS (1024 SPF)
Compression mode : Lossy
Delay relative to video : -23 ms
Stream size : 128 MiB (9%)
Title : www.MovCr.cc
Language : Telugu
Default : No
Forced : No






Category:Movies > South Dub
Lang:Hindi
Total Size:1.40 GB
Info Hash:e5dadc44db172740f7de508b382c36b34099a6ce
Added By:MAZE
Date Added:07-10-2018 19:43:18
Views:1,564
Hits:286

Download Torrent

Ratings:Not Yet Rated (Log in to rate it)


Tracker:
http://retracker.mgts.by:80/announce

This Torrent also has backup trackers
URLSeedersLeechersCompleted
http://retracker.mgts.by:80/announce17185827
http://retracker.telecom.by:80/announce000
http://t.nyaatracker.com:80/announce26130
http://tracker.city9x.com:2710/announce8956145
http://tracker.electro-torrent.pl:80/announce14970221


File List: 


Comments

No comments still posted

Powered by 10 Hamsters v2-svn -|- Page Generated In 0.615731 secs.
-|- RSS FEED
Theme By: Nikkbu