[Login] or [Signup]
Login
Username:
Password:
[Signup]
[Recover Account]


Poll


You must be logged in to view polls



Torrent Details For "Venom (2018) English 720p HDCamRip x264 AAC 900MB - MovCr"

Venom (2018) English 720p HDCamRip x264 AAC 900MB - MovCr

Download this torrent | Magnet Download
Health:
Seeds: 0
Leechers: 0
Completed:
Last Checked: 07-10-2018 19:36:55
External Torrent
Update Stats
Download Magnet


Poster


iMDB
Title: Venom
Year: 2018
Runtime: 112 minutes
Votes: 20600
Rating: 7.1/10
Language: English
Tagline: The world has enough Superheroes.
Director: Ruben Fleischer
Writing By: Jeff Pinkner,Scott Rosenberg,Kelly Marcel,Jeff Pinkner,Scott Rosenberg,Todd McFarlane,David Michelinie,
Produced By: Avi Arad,Howard Chen,Edward Cheng,Tom Hardy,David B. Householter,Stan Lee,Kelly Marcel,Amy Pascal,Matt Tolmach,
Music: Ludwig Göransson
Cast:
Tom Hardy as Eddie Brock / Venom
Michelle Williams as Anne Weying
Riz Ahmed as Carlton Drake / Riot
Scott Haze as Security Chief Roland Treece
Reid Scott as Dr. Dan Lewis
Jenny Slate as Dr. Dora Skirth
Melora Walters as Homeless Woman Maria
Woody Harrelson as Cletus Kasady
Peggy Lu as Mrs. Chen
Malcolm C. Murray as Lewis Donate
Trailers:
Official Trailer
Official Trailer #2
Trailer #1
Official Teaser Trailer


Watch-Free-HD     Download

Details
Name:Venom (2018) English 720p HDCamRip x264 AAC 900MB - MovCr
Description:
Our Site   http://movcr.cc


Venom (2018) English 720p HDCamRip x264 AAC 900MB - MovCr

 


General
Unique ID                                : 62298426747505171302240699684757047043 (0x2EDE3D95160B404C3C7697FFC5560703)
Complete name                            : [www.MovCr.cc] Venom (2018) English 720p HQ HDCamRip x264 AAC 900MB - MovCr\www.MovCr.cc - Venom (2018) English 720p HDCamRip x264 AAC 900MB - MovCr.mkv
Format                                   : Matroska
Format version                           : Version 4 / Version 2
File size                                : 901 MiB
Duration                                 : 1 h 31 min
Overall bit rate                         : 1 383 kb/s
Movie name                               : www.MovCr.cc
Encoded date                             : UTC 2018-10-07 18:26:03
Writing application                      : mkvmerge v26.0.0 ('In The Game') 64-bit
Writing library                          : libebml v1.3.6 + libmatroska v1.4.9

Video
ID                                       : 1
Format                                   : AVC
Format/Info                              : Advanced Video Codec
Format profile                           : [email protected]
Format settings                          : 2 Ref Frames
Format settings, CABAC                   : No
Format settings, RefFrames               : 2 frames
Format settings, GOP                     : M=1, N=25
Codec ID                                 : V_MPEG4/ISO/AVC
Duration                                 : 1 h 31 min
Bit rate                                 : 1 185 kb/s
Width                                    : 1 280 pixels
Height                                   : 544 pixels
Display aspect ratio                     : 2.35:1
Frame rate mode                          : Constant
Frame rate                               : 29.970 (30000/1001) FPS
Color space                              : YUV
Chroma subsampling                       : 4:2:0
Bit depth                                : 8 bits
Scan type                                : Progressive
Bits/(Pixel*Frame)                       : 0.057
Stream size                              : 772 MiB (86%)
Title                                    : www.MovCr.cc
Default                                  : Yes
Forced                                   : No

Audio
ID                                       : 2
Format                                   : AAC
Format/Info                              : Advanced Audio Codec
Format profile                           : LC
Codec ID                                 : A_AAC-2
Duration                                 : 1 h 31 min
Bit rate                                 : 192 kb/s
Channel(s)                               : 2 channels
Channel positions                        : Front: L R
Sampling rate                            : 48.0 kHz
Frame rate                               : 46.875 FPS (1024 SPF)
Compression mode                         : Lossy
Stream size                              : 127 MiB (14%)
Title                                    : www.MovCr.cc
Language                                 : English
Default                                  : Yes
Forced                                   : No




                   
Category:Movies > Pre-Releases
Lang:English  English
Total Size:900.62 MB
Info Hash:5200ffa9f6691b17700caf2e914c574d49d3131d
Added By:MAZE
Date Added:07-10-2018 19:36:55
Views:117
Hits:7

Download Torrent

Ratings:Not Yet Rated (Log in to rate it)


Tracker:
udp://tracker.coppersurfer.tk:6969/announce


File List: 


Comments

No comments still posted

Powered by 10 Hamsters v2-svn -|- Page Generated In 1.428583 secs.
-|- RSS FEED
Theme By: Nikkbu