[Login] or [Signup]
Login
Username:
Password:
[Signup]
[Recover Account]


Poll


You must be logged in to view polls



Torrent Details For "CHALO (2018) 1080p Hindi Dubbed WEBHD x264 AAC 2.1GB [MOVCR]"

CHALO (2018) 1080p Hindi Dubbed WEBHD x264 AAC 2.1GB [MOVCR]

Download this torrent | Magnet Download
Health:
Seeds: 0
Leechers: 0
Completed:
Last Checked: 07-10-2018 18:25:14
External Torrent
Update Stats
Download Magnet


Poster


iMDB
Imdb Picture Title: Chalo
Year: 2018
Runtime: 145 minutes
Votes: 323
Rating: 6.9/10
Language: Telugu
Country: India
All Genres: Action, Comedy, Family, Romance
Plot Outline: The film revolves around a village called "Tiruppuram" which is divided into half by the Tamil and Telugu people. Neither of the groups cross and enter the other's perimeter.


Director: Venky Kudumula
Writing By: Venky Kudumula,Venky Kudumula,Venky Kudumula,
Produced By: Usha Mulpuri,
Music: Sagar Mahati
Cast:
Naga Shaurya as Hari
Rashmika Mandanna as Kartika
Achyuth Kumar as Kesavulu
Mime Gopi as Veeramuthu
Raghu Babu as Paramathma
Venu Gopal as
Viva Harsha as
Jeeva as
Vennela Kishore as
V.K. Naresh as
Trailers:
Chalo trailer


Watch-Free-HD     Download

Details
Name:CHALO (2018) 1080p Hindi Dubbed WEBHD x264 AAC 2.1GB [MOVCR]
Description:
OUR SITE   http://movcr.cc

CHALO (2018) 1080p Hindi Dubbed WEBHD x264 AAC 2.1GB [MOVCR]



 http://www.imdb.com/title/tt7589670/

 

General
Unique ID                                : 329345126205087906470677223613744166928 (0xF7C59066365ED244E344F24215923810)
Complete name                            : www.MovCr.cc - CHALO (2018) 1080p Hindi Dubbed WEBHD x264 AAC 2.1GB [MOVCR].mkv
Format                                   : Matroska
Format version                           : Version 4 / Version 2
File size                                : 2.16 GiB
Duration                                 : 2 h 1 min
Overall bit rate                         : 2 558 kb/s
Movie name                               : www.MovCr.cc
Encoded date                             : UTC 2018-10-07 17:16:22
Writing application                      : mkvmerge v26.0.0 ('In The Game') 64-bit
Writing library                          : libebml v1.3.6 + libmatroska v1.4.9

Video
ID                                       : 1
Format                                   : AVC
Format/Info                              : Advanced Video Codec
Format profile                           : [email protected]
Format settings                          : CABAC / 2 Ref Frames
Format settings, CABAC                   : Yes
Format settings, RefFrames               : 2 frames
Codec ID                                 : V_MPEG4/ISO/AVC
Duration                                 : 2 h 1 min
Bit rate                                 : 2 430 kb/s
Width                                    : 1 920 pixels
Height                                   : 1 080 pixels
Display aspect ratio                     : 16:9
Frame rate mode                          : Constant
Frame rate                               : 25.000 FPS
Color space                              : YUV
Chroma subsampling                       : 4:2:0
Bit depth                                : 8 bits
Scan type                                : Progressive
Bits/(Pixel*Frame)                       : 0.047
Stream size                              : 2.05 GiB (95%)
Title                                    : www.MovCr.cc
Default                                  : Yes
Forced                                   : No
Color range                              : Limited
Color primaries                          : BT.709
Transfer characteristics                 : BT.709
Matrix coefficients                      : BT.709

Audio
ID                                       : 2
Format                                   : AAC
Format/Info                              : Advanced Audio Codec
Format profile                           : LC
Codec ID                                 : A_AAC-2
Duration                                 : 2 h 1 min
Bit rate                                 : 126 kb/s
Channel(s)                               : 2 channels
Channel positions                        : Front: L R
Sampling rate                            : 44.1 kHz
Frame rate                               : 43.066 FPS (1024 SPF)
Compression mode                         : Lossy
Delay relative to video                  : 82 ms
Stream size                              : 109 MiB (5%)
Title                                    : www.MovCr.cc
Language                                 : Hindi
Default                                  : Yes
Forced                                   : No



 
 
 
 
 
 
 
 
Category:Movies > South Dub
Lang:Hindi
Total Size:2.16 GB
Info Hash:ed0a232d3dfe44b6d150cde05f76419a4129f387
Added By:MAZE
Date Added:07-10-2018 18:25:14
Views:333
Hits:17

Download Torrent

Ratings:Not Yet Rated (Log in to rate it)


Tracker:
udp://tracker.coppersurfer.tk:6969/announce


File List: 


Comments

No comments still posted

Powered by 10 Hamsters v2-svn -|- Page Generated In 1.289489 secs.
-|- RSS FEED
Theme By: Nikkbu