[Login] or [Signup]
Login
Username:
Password:
[Signup]
[Recover Account]


Poll


You must be logged in to view polls



Torrent Details For "Inspector Notty K (2018) Bengali Movie - 2CD - HDTVRip[x264 - AC3(5.1Ch)] "

Inspector Notty K (2018) Bengali Movie - 2CD - HDTVRip[x264 - AC3(5.1Ch)]

Download this torrent | Magnet Download
Health:
Seeds: 49
Leechers: 7
Completed: 53 
Last Checked: 10-10-2018 14:44:03
External Torrent
Update Stats
Download Magnet


Poster


iMDB
Imdb Picture Title: Inspector Notty K
Year: 2018
Runtime: 147 minutes
Votes: 128
Rating: 6.8/10
Language: Bengali
Country: India
All Genres: Comedy, Romance
Plot Outline: Notty (Jeet) is a Bengal police constable that desperately wants a promotion. Because of this, he accepts Superindent of Police request backed up by Inspector to fly to Italy to retrieve his daughter, Sameera (Nusrat Faria). Notty assumes that this will be an easy task and on reaching Italy starts his mission to bring Sameera back but mistakes Sameera 's friend working in a parlour as Sameera herself but is dismayed when Sameera ends up being a "by the books" officer with the Italian Police Department who has left the parlour sometime back because of the Police Job. Notty in order to bring her back and to avoid deportation back to India helps Sameera to convince her Mother in getting herself roped with a white man in marriage bond whom Sameera likes. These clashes with his irreverent and unsophisticated personality, but soon the two begin to find themselves drawn to one another. The story will be about Notty's desire to become an Inspector and the changing equations of the ...


Director: Ashok Pati
Writing By: Prameet,Anshuman Pratyush,
Produced By: Joydeep Roy Chowdhury,Jeet,Amit Jumrani,Gopal Madnani,Nishpal Singh,
Music: Savvy Gupta Suddho Roy
Cast:
Jeet as Notty K
Nusraat Faria Mazhar as
Kharaj Mukherjee as


Watch-Free-HD     Download

Details
Name:Inspector Notty K (2018) Bengali Movie - 2CD - HDTVRip[x264 - AC3(5.1Ch)]
Description:
   Inspector Notty K (2018) Bengali Movie -
2CD - HDTVRip[x264 - AC3(5.1Ch)]    
 





General
Format                                   : Matroska
Format version                           : Version 4
File size                                : 1.40 GiB
Duration                                 : 2 h 39 min

Video
ID                                       : 1
Format                                   : AVC
Format/Info                              : Advanced Video Codec
Format profile                           : [email protected]
Format settings                          : CABAC / 4 Ref Frames
Format settings, CABAC                   : Yes
Format settings, RefFrames               : 4 frames
Codec ID                                 : V_MPEG4/ISO/AVC
Duration                                 : 2 h 39 min
Bit rate                                 : 1 065 kb/s
Width                                    : 720 pixels
Height                                   : 304 pixels
Display aspect ratio                     : 2.35:1
Frame rate mode                          : Constant
Frame rate                               : 25.000 FPS
Color space                              : YUV
Chroma subsampling                       : 4:2:0
Bit depth                                : 8 bits
Scan type                                : Progressive
Bits/(Pixel*Frame)                       : 0.195
Stream size                              : 1.19 GiB (85%)

Audio
ID                                       : 2
Format                                   : AC-3
Format/Info                              : Audio Coding 3
Commercial name                          : Dolby Digital
Codec ID                                 : A_AC3
Duration                                 : 2 h 39 min
Bit rate mode                            : Constant
Bit rate                                 : 192 kb/s
Channel(s)                               : 6 channels
Channel layout                           : L R C LFE Ls Rs
Sampling rate                            : 48.0 kHz
Stream size                              : 219 MiB (15%)


 Thumbnail  




Category:Movies > Bengali
Lang:Kannada
Total Size:1.40 GB
Info Hash:73a3c0e5429b10bdf644f3c54746a71e4d5bb137
Added By:CyberTron
Date Added:07-10-2018 17:34:24
Views:237
Hits:24

Download Torrent

Ratings:Not Yet Rated (Log in to rate it)

  


Tracker:
udp://tracker.trackerfix.com:80/announce


File List: 


Comments

No comments still posted

Powered by 10 Hamsters v2-svn -|- Page Generated In 0.498422 secs.
-|- RSS FEED
Theme By: Nikkbu