[Login] or [Signup]
Login
Username:
Password:
[Signup]
[Recover Account]


Poll


You must be logged in to view polls



Torrent Details For "Bay rong aka Clash (2009) 1080p Bluray x264 Dual Audio [Hindi DD 2.0 + Vietnamese DD 5.1] Esub"

Bay rong aka Clash (2009) 1080p Bluray x264 Dual Audio [Hindi DD 2.0 + Vietnamese DD 5.1] Esub

Download this torrent | Magnet Download
Health:
Seeds: 0
Leechers: 18
Completed:
Last Checked: 16-09-2018 14:59:47
External Torrent
Update Stats
Download Magnet


Poster


iMDB
Imdb Picture Original Title: Bay rong
Title: Clash
Year: 2009
Runtime: 90 minutes
Votes: 896
Rating: 6.1/10
Language: Vietnamese
Country: Vietnam
All Genres: Action
Plot Outline: Trinh, a mercenary, must complete a series of organized crime jobs for her boss in order to win the release of her kidnapped daughter. She hires several mercenaries to help, including Quan,...
Director: Thanh Son Le
Writing By: Thanh Son Le,Johnny Nguyen,
Produced By: Ryan Hoang Hubris,Jenni Trang Le,Veronica Ngo,Johnny Nguyen,Rich Long Nguyen,Thanh Truc 'Tawny' Nguyen,Jimmy Pham,Alex Vo,Carson Vo,
Music: Christopher Wong
Plot:

Trinh, a mercenary, must complete a series of organized crime jobs for her boss in order to win the release of her kidnapped daughter. She hires several mercenaries to help, including Quan, who she becomes attracted to. Trinh and Quan's relationship becomes complicated as it becomes evident that their motivations are not the same.

- Written by Anonymous
Cast:
Johnny Nguyen as Quan
Veronica Ngo as Trinh
Hoang Phuc Nguyen as Hac Long
Lam Minh Thang as Cang
Hieu Hien as Phong
Truong The Vinh as Tuan
Nguyen Hau as A.Thoong
Alain Bruxelles as Frenchman #1
Fran├žois de la Torre as Frenchman #5
Isabelle Du as Daughter Phoenix
Trailers:
Clash (Bay Rong)


Watch-Free-HD     Download

Details
Name:Bay rong aka Clash (2009) 1080p Bluray x264 Dual Audio [Hindi DD 2.0 + Vietnamese DD 5.1] Esub
Description:



Bay rong aka Clash 2009 1080p Bluray x264 Dual Audio Hindi DD 2.0 Vietnamese DD 5.1 Esub [email protected]!

Audio Source : Org WebHD (Rider thanks)

IMDB Link :www.imdb.com/title/tt1571565/

Video
ID : 1
Format : AVC
Format/Info : Advanced Video Codec
Format profile : [email protected]
Format settings, CABAC : Yes
Format settings, ReFrames : 4 frames
Codec ID : V_MPEG4/ISO/AVC
Duration : 1 h 37 min
Bit rate : 8 135 kb/s
Width : 1 920 pixels
Height : 1 080 pixels
Display aspect ratio : 16:9
Frame rate mode : Constant
Frame rate : 23.976 (24000/1001) FPS
Color space : YUV
Chroma subsampling : 4:2:0
Bit depth : 8 bits
Scan type : Progressive
Bits/(Pixel*Frame) : 0.164
Stream size : 5.52 GiB (91%)
Title : Bay rong aka Clash 2009 1080p Bluray x264 Dual Audio Hindi DD 2.0 Vietnamese DD 5.1 Esub [email protected]!
Writing library : x264 core 120 r2146 bcd41db
Language : English
Default : Yes
Forced : No

Audio #1
ID : 2
Format : AC-3
Format/Info : Audio Coding 3
Format settings, Endianness : Big
Codec ID : A_AC3
Duration : 1 h 37 min
Bit rate mode : Constant
Bit rate : 192 kb/s
Channel(s) : 2 channels
Channel positions : Front: L R
Sampling rate : 48.0 kHz
Frame rate : 31.250 FPS (1536 spf)
Bit depth : 16 bits
Compression mode : Lossy
Stream size : 134 MiB (2%)
Title : Org DD 2.0
Language : Hindi
Service kind : Complete Main
Default : Yes
Forced : No

Audio #2
ID : 3
Format : AC-3
Format/Info : Audio Coding 3
Format settings, Endianness : Big
Codec ID : A_AC3
Duration : 1 h 37 min
Bit rate mode : Constant
Bit rate : 640 kb/s
Channel(s) : 6 channels
Channel positions : Front: L C R, Side: L R, LFE
Sampling rate : 48.0 kHz
Frame rate : 31.250 FPS (1536 spf)
Bit depth : 16 bits
Compression mode : Lossy
Stream size : 446 MiB (7%)
Title : Org DD 5.1
Language : Vietnamese
Service kind : Complete Main
Default : No
Forced : No

Text
ID : 4
Format : UTF-8
Codec ID : S_TEXT/UTF8
Codec ID/Info : UTF-8 Plain Text
Duration : 1 h 32 min
Bit rate : 22 b/s
Count of elements : 549
Stream size : 15.0 KiB (0%)
Title : English
Language : English
Default : Yes
Forced : No

ScreenShots

Category:Movies > 1080P Bluray
Lang:Hindi
Total Size:6.15 GB
Info Hash:133809ffc7451e332cfdd9a03e0cdf079273a60c
Added By:Shrawankk
Date Added:07-07-2017 18:37:09
Views:271
Hits:42

Download Torrent

Ratings:Not Yet Rated (Log in to rate it)


Tracker:
http://bigfoot1942.sektori.org:6969/announce

This Torrent also has backup trackers
URLSeedersLeechersCompleted
http://bigfoot1942.sektori.org:6969/announce000
http://tracker2.wasabii.com.tw:6969/announce000
http://tracker.mg64.net:6881/announce000
http://bt.artvid.ru:6969/announce000
http://open.acgtracker.com:1096/announce010
http://tracker.opentrackr.org/announce000
http://announce.torrentsmd.com:6969/announce000
http://tracker.trackerfix.com/announce000
http://tracker.opentrackr.org/announce000
http://tracker.opentrackr.org:1337/announce150
http://glotorrents.pw/announce000


File List: 


Comments

No comments still posted

Powered by 10 Hamsters v2-svn -|- Page Generated In 1.318864 secs.
-|- RSS FEED
Theme By: Nikkbu