[Login] or [Signup]
Login
Username:
Password:
[Signup]
[Recover Account]


Poll


You must be logged in to view polls



Torrent Details For "The Predator 2018 NEW 720p HDCAM x264 AAC [MW]"

The Predator 2018 NEW 720p HDCAM x264 AAC [MW]

Download this torrent | Magnet Download
Health:
Seeds: 539
Leechers: 305
Completed: 2,191 
Last Checked: 07-10-2018 10:00:46
External Torrent
Update Stats
Download Magnet


Poster
No poster


Watch-Free-HD     Download

Details
Name:The Predator 2018 NEW 720p HDCAM x264 AAC [MW]
Description:

 


General
Format : Matroska
Format version : Version 4 / Version 2
File size : 1.22 GiB
Duration : 1 h 41 min
Overall bit rate : 1 726 kb/s

Video
ID : 1
Format : AVC
Format/Info : Advanced Video Codec
Format profile : [email protected]
Format settings : CABAC / 4 Ref Frames
Format settings, CABAC : Yes
Format settings, RefFrames : 4 frames
Codec ID : V_MPEG4/ISO/AVC
Duration : 1 h 41 min
Bit rate : 1 500 kb/s
Width : 1 280 pixels
Height : 528 pixels
Display aspect ratio : 2.40:1
Frame rate mode : Constant
Frame rate : 30.000 FPS
Color space : YUV
Chroma subsampling : 4:2:0
Bit depth : 8 bits
Scan type : Progressive
Bits/(Pixel*Frame) : 0.074
Stream size : 1.06 GiB (87%)
Writing library : x264 core 155 r2901 7d0ff22
Default : Yes
Forced : No

Audio
ID : 2
Format : AAC
Format/Info : Advanced Audio Codec
Format profile : LC
Codec ID : A_AAC-2
Duration : 1 h 41 min
Bit rate : 226 kb/s
Channel(s) : 2 channels
Channel positions : Front: L R
Sampling rate : 48.0 kHz
Frame rate : 46.875 FPS (1024 SPF)
Compression mode : Lossy
Stream size : 164 MiB (13%)
Language : English
Default : Yes
Forced : No


 http://pichub.site/image/EjEHT
 http://pichub.site/image/Ej7DN
 http://pichub.site/image/EjcnZ
 http://pichub.site/image/EjVmD
 http://pichub.site/image/EjwYg
 http://pichub.site/image/EjyzI

Category:Movies > Pre-Releases
Lang:English  English
Total Size:1.22 GB
Info Hash:9b363b398ea90b7ac9eae6f84891d7a4e443751c
Added By:Freaky
Date Added:07-10-2018 00:50:16
Views:132
Hits:5

Download Torrent

Ratings:Not Yet Rated (Log in to rate it)


Tracker:
udp://tracker.coppersurfer.tk:6969/announce


File List: 


Comments

No comments still posted

Powered by 10 Hamsters v2-svn -|- Page Generated In 0.158272 secs.
-|- RSS FEED
Theme By: Nikkbu