[Login] or [Signup]
Login
Username:
Password:
[Signup]
[Recover Account]


Poll


You must be logged in to view polls



Torrent Details For "Meow (2018 - Hindi Dubbed) - 1CD - HDRip[Mp4 - AAC3(5.1Ch)]"

Meow (2018 - Hindi Dubbed) - 1CD - HDRip[Mp4 - AAC3(5.1Ch)]

Download this torrent | Magnet Download
Health:
Seeds: 11
Leechers: 55
Completed: 34 
Last Checked: 09-10-2018 09:11:40
External Torrent
Update Stats
Download Magnet


Poster


Watch-Free-HD     Download

Details
Name:Meow (2018 - Hindi Dubbed) - 1CD - HDRip[Mp4 - AAC3(5.1Ch)]
Description:
   Meow (2018 - Hindi Dubbed) - 1CD -
HDRip[Mp4 - AAC3(5.1Ch)]    
 





General
Format                                   : MPEG-4
Format profile                           : Base Media
Codec ID                                 : isom (isom)
File size                                : 700 MiB
Duration                                 : 1 h 53 min

Video
ID                                       : 1
Format                                   : AVC
Format/Info                              : Advanced Video Codec
Format profile                           : [email protected]
Format settings                          : CABAC / 4 Ref Frames
Format settings, CABAC                   : Yes
Format settings, RefFrames               : 4 frames
Codec ID                                 : avc1
Codec ID/Info                            : Advanced Video Coding
Duration                                 : 1 h 53 min
Bit rate                                 : 731 kb/s
Maximum bit rate                         : 4 852 kb/s
Width                                    : 720 pixels
Height                                   : 304 pixels
Display aspect ratio                     : 2.35:1
Frame rate mode                          : Constant
Frame rate                               : 25.000 FPS
Color space                              : YUV
Chroma subsampling                       : 4:2:0
Bit depth                                : 8 bits
Scan type                                : Progressive
Bits/(Pixel*Frame)                       : 0.134
Stream size                              : 594 MiB (85%)

Audio
ID                                       : 2
Format                                   : AAC LC SBR
Commercial name                          : HE-AAC
Format settings                          : Explicit
Codec ID                                 : mp4a-40-2
Duration                                 : 1 h 53 min
Bit rate mode                            : Variable
Bit rate                                 : 128 kb/s
Maximum bit rate                         : 138 kb/s
Channel(s)                               : 6 channels
Channel layout                           : C L R Ls Rs LFE
Sampling rate                            : 48.0 kHz
Stream size                              : 104 MiB (15%)



 Thumbnail  




Category:Movies > South Dub
Lang:Hindi
Total Size:700.42 MB
Info Hash:1c84aed2b9a80f10bc3531ef724f9b516b2907ff
Added By:CyberTron
Date Added:06-10-2018 22:54:18
Views:803
Hits:32

Download Torrent

Ratings:Not Yet Rated (Log in to rate it)

  


Tracker:
udp://tracker.trackerfix.com:80/announce


File List: 


Comments

No comments still posted

Powered by 10 Hamsters v2-svn -|- Page Generated In 0.575870 secs.
-|- RSS FEED
Theme By: Nikkbu