[Login] or [Signup]
Login
Username:
Password:
[Signup]
[Recover Account]


Poll


You must be logged in to view polls



Torrent Details For "Khiladi Rockstar(2018 - Johnny Johnny Yes Papa) - Hindi Dubbed - 1CD - HDTVRip[Mp4 - AAC3(5.1C..."

Khiladi Rockstar(2018 - Johnny Johnny Yes Papa) - Hindi Dubbed - 1CD - HDTVRip[Mp4 - AAC3(5.1C...

Download this torrent | Magnet Download
Health:
Seeds: 0
Leechers: 13
Completed: 102 
Last Checked: 05-11-2018 06:54:22
External Torrent
Update Stats
Download Magnet


Poster


iMDB
Title: Johnny Johnny Yes Papa
Year: 2018
Votes: 14
Rating: 7.5/10
Language: Kannada, English
Director: Preetham Gubbi

Produced By: Duniya Vijay,
Music: V. Harikrishna
Cast:
Duniya Vijay as Johnny
Rangayana Raghu as
Rachita Ram as Priya
Sadhu Kokila as Doctor
Zachary Coffin as Peter
Mebiena Michael Cutino as


Watch-Free-HD     Download

Details
Name:Khiladi Rockstar(2018 - Johnny Johnny Yes Papa) - Hindi Dubbed - 1CD - HDTVRip[Mp4 - AAC3(5.1C...
Description:
   Khiladi Rockstar(2018 - Johnny Johnny Yes Papa) -
Hindi Dubbed - 1CD - HDTVRip[Mp4 - AAC3(5.1Ch)]    
 






General
Format                                   : MPEG-4
Format profile                           : Base Media
Codec ID                                 : isom (isom)
File size                                : 701 MiB
Duration                                 : 2 h 34 min

Video
ID                                       : 1
Format                                   : AVC
Format/Info                              : Advanced Video Codec
Format profile                           : [email protected]
Format settings                          : CABAC / 4 Ref Frames
Format settings, CABAC                   : Yes
Format settings, RefFrames               : 4 frames
Codec ID                                 : avc1
Codec ID/Info                            : Advanced Video Coding
Duration                                 : 2 h 34 min
Bit rate                                 : 553 kb/s
Maximum bit rate                         : 2 545 kb/s
Width                                    : 560 pixels
Height                                   : 240 pixels
Display aspect ratio                     : 2.35:1
Frame rate mode                          : Constant
Frame rate                               : 25.000 FPS
Color space                              : YUV
Chroma subsampling                       : 4:2:0
Bit depth                                : 8 bits
Scan type                                : Progressive
Bits/(Pixel*Frame)                       : 0.165
Stream size                              : 609 MiB (87%)

Audio
ID                                       : 2
Format                                   : AAC LC SBR
Commercial name                          : HE-AAC
Format settings                          : Explicit
Codec ID                                 : mp4a-40-2
Duration                                 : 2 h 34 min
Bit rate mode                            : Variable
Bit rate                                 : 79.8 kb/s
Maximum bit rate                         : 88.5 kb/s
Channel(s)                               : 6 channels
Channel layout                           : C L R Ls Rs LFE
Sampling rate                            : 48.0 kHz
Stream size                              : 87.9 MiB (13%)



 Thumbnail  




Category:Movies > South Dub
Lang:Hindi
Total Size:700.95 MB
Info Hash:172a4119f7007418bfb42501752dc482f66a61fc
Added By:CyberTron
Date Added:06-10-2018 21:22:49
Views:1,269
Hits:102

Download Torrent

Ratings:Not Yet Rated (Log in to rate it)


Tracker:
udp://tracker.trackerfix.com:80/announce


File List: 


Comments

No comments still posted

Powered by 10 Hamsters v2-svn -|- Page Generated In 0.768255 secs.
-|- RSS FEED
Theme By: Nikkbu