[Login] or [Signup]
Login
Username:
Password:
[Signup]
[Recover Account]


Poll


You must be logged in to view polls



Torrent Details For "Venom (2018 - Hindi Dubbed) - 1CD - HDCam Rip[x264 - AAC3(2Ch)]"

Venom (2018 - Hindi Dubbed) - 1CD - HDCam Rip[x264 - AAC3(2Ch)]

Download this torrent | Magnet Download
Health:
Seeds: 0
Leechers: 1
Completed:
Last Checked: 10-10-2018 06:45:09
External Torrent
Update Stats
Download Magnet


Poster


iMDB
Title: Venom
Year: 2018
Runtime: 112 minutes
Votes: 20600
Rating: 7.1/10
Language: English
Tagline: The world has enough Superheroes.
Director: Ruben Fleischer
Writing By: Jeff Pinkner,Scott Rosenberg,Kelly Marcel,Jeff Pinkner,Scott Rosenberg,Todd McFarlane,David Michelinie,
Produced By: Avi Arad,Howard Chen,Edward Cheng,Tom Hardy,David B. Householter,Stan Lee,Kelly Marcel,Amy Pascal,Matt Tolmach,
Music: Ludwig Göransson
Cast:
Tom Hardy as Eddie Brock / Venom
Michelle Williams as Anne Weying
Riz Ahmed as Carlton Drake / Riot
Scott Haze as Security Chief Roland Treece
Reid Scott as Dr. Dan Lewis
Jenny Slate as Dr. Dora Skirth
Melora Walters as Homeless Woman Maria
Woody Harrelson as Cletus Kasady
Peggy Lu as Mrs. Chen
Malcolm C. Murray as Lewis Donate
Trailers:
Official Trailer
Official Trailer #2
Trailer #1
Official Teaser Trailer


Watch-Free-HD     Download

Details
Name:Venom (2018 - Hindi Dubbed) - 1CD - HDCam Rip[x264 - AAC3(2Ch)]
Description:
   Venom (2018 - Hindi Dubbed) - 1CD -
HDCam Rip[x264 - AAC3(2Ch)]    
 





General
Format                                   : Matroska
Format version                           : Version 4
File size                                : 701 MiB
Duration                                 : 1 h 52 min

Video
ID                                       : 1
Format                                   : AVC
Format/Info                              : Advanced Video Codec
Format profile                           : [email protected]
Format settings                          : CABAC / 4 Ref Frames
Format settings, CABAC                   : Yes
Format settings, RefFrames               : 4 frames
Codec ID                                 : V_MPEG4/ISO/AVC
Duration                                 : 1 h 52 min
Bit rate                                 : 737 kb/s
Width                                    : 720 pixels
Height                                   : 304 pixels
Display aspect ratio                     : 2.35:1
Frame rate mode                          : Constant
Frame rate                               : 25.000 FPS
Color space                              : YUV
Chroma subsampling                       : 4:2:0
Bit depth                                : 8 bits
Scan type                                : Progressive
Bits/(Pixel*Frame)                       : 0.135
Stream size                              : 596 MiB (85%)

Audio
ID                                       : 2
Format                                   : AAC LC
Codec ID                                 : A_AAC-2
Duration                                 : 1 h 52 min
Bit rate                                 : 128 kb/s
Channel(s)                               : 2 channels
Channel layout                           : L R
Sampling rate                            : 48.0 kHz
Stream size                              : 103 MiB (15%)


 Thumbnail  




Category:Movies > Hollywood Dub
Lang:Hindi
Total Size:701.07 MB
Info Hash:b742fc28c786b346755e449b38f297e980104220
Added By:CyberTron
Date Added:06-10-2018 13:25:00
Views:539
Hits:27

Download Torrent

Ratings:Not Yet Rated (Log in to rate it)

  


Tracker:
udp://tracker.trackerfix.com:80/announce


File List: 


Comments

No comments still posted

Powered by 10 Hamsters v2-svn -|- Page Generated In 0.610896 secs.
-|- RSS FEED
Theme By: Nikkbu