[Login] or [Signup]
Login
Username:
Password:
[Signup]
[Recover Account]


Poll


You must be logged in to view polls



Torrent Details For "Love Yatri (2018) Hindi 720p Untouched Pre-DVDRip x264 AAC 1.1GB - MovCr"

Love Yatri (2018) Hindi 720p Untouched Pre-DVDRip x264 AAC 1.1GB - MovCr

Download this torrent | Magnet Download
Health:
Seeds: 115
Leechers: 9
Completed: 4,320 
Last Checked: 22-10-2018 02:47:27
External Torrent
Update Stats
Download Magnet


Poster


iMDB
Original Title: Loveyatri
Title: Love Will Take Over
Year: 2018
Runtime: 140 minutes
Votes: 180
Rating: 3.1/10
Language: Hindi
Director: Abhiraj Minawala
Writing By: Niren Bhatt,
Produced By: Salma Khan,Yogendra Mogre,Shamiraah Nambiar,Sudipto Sarkar,Yogiraj Shetty,
Music: Sanchit Balhara
Cast:
Aayush Sharma as Sushrut
Warina Hussain as Warina Hussain
Caroline Wilde as Kate
Danny Mahoney as Chris
Sara Alves as Student
Jan Bostock as Immigration official
Dilyana Bouklieva as 1. Police Officer. 2. Charity organisation employee
Lee Byford as Police Officer
Sol Corfield as Dancer
Al Groves as Homeless Man
Trailers:
Loveyatri Trailer


Watch-Free-HD     Download

Details
Name:Love Yatri (2018) Hindi 720p Untouched Pre-DVDRip x264 AAC 1.1GB - MovCr
Description:
Our Site URL   http://movcr.cc  Visit Our Site For Exclusives

Love Yatri (2018) Hindi 720p Untouched Pre-DVDRip x264 AAC 1.1GB - MovCr




 http://www.imdb.com/title/tt7820846/

 


General
Unique ID                                : 229120584625192410350265728876338931844 (0xAC5F04FCACD67908E113A2D3DFB6E884)
Complete name                            : [www.MovCr.cc] Love Yatri (2018) Hindi 720p Untouched Pre-DVDRip x264 AAC 1.1GB - MovCr\www.MovCr.cc - Love Yatri (2018) Hindi 720p Untouched Pre-DVDRip x264 AAC 1.1GB - MovCr.mkv
Format                                   : Matroska
Format version                           : Version 4 / Version 2
File size                                : 1.10 GiB
Duration                                 : 2 h 7 min
Overall bit rate                         : 1 232 kb/s
Movie name                               : www.MovCr.cc
Encoded date                             : UTC 2018-10-06 10:24:26
Writing application                      : mkvmerge v26.0.0 ('In The Game') 64-bit
Writing library                          : libebml v1.3.6 + libmatroska v1.4.9

Video
ID                                       : 1
Format                                   : AVC
Format/Info                              : Advanced Video Codec
Format profile                           : [email protected]
Format settings                          : 2 Ref Frames
Format settings, CABAC                   : No
Format settings, RefFrames               : 2 frames
Codec ID                                 : V_MPEG4/ISO/AVC
Duration                                 : 2 h 7 min
Bit rate                                 : 1 034 kb/s
Width                                    : 1 280 pixels
Height                                   : 544 pixels
Display aspect ratio                     : 2.35:1
Frame rate mode                          : Constant
Frame rate                               : 25.000 FPS
Color space                              : YUV
Chroma subsampling                       : 4:2:0
Bit depth                                : 8 bits
Scan type                                : Progressive
Bits/(Pixel*Frame)                       : 0.059
Stream size                              : 947 MiB (84%)
Title                                    : www.MovCr.cc
Default                                  : Yes
Forced                                   : No

Audio
ID                                       : 2
Format                                   : AAC
Format/Info                              : Advanced Audio Codec
Format profile                           : LC
Codec ID                                 : A_AAC-2
Duration                                 : 2 h 7 min
Bit rate                                 : 192 kb/s
Channel(s)                               : 2 channels
Channel positions                        : Front: L R
Sampling rate                            : 48.0 kHz
Frame rate                               : 46.875 FPS (1024 SPF)
Compression mode                         : Lossy
Stream size                              : 179 MiB (16%)
Title                                    : www.MovCr.cc
Default                                  : Yes
Forced                                   : No



                                   
Category:Movies > Bollywood
Lang:Hindi
Total Size:1.10 GB
Info Hash:b5ca0f9c53e5d8c4d77354208dc512753c0de565
Added By:MAZE
Date Added:06-10-2018 11:34:23
Views:8,024
Hits:611

Download Torrent

Ratings:Not Yet Rated (Log in to rate it)


Tracker:
udp://tracker.coppersurfer.tk:6969/announce


File List: 


Comments

No comments still posted

Powered by 10 Hamsters v2-svn -|- Page Generated In 2.381889 secs.
-|- RSS FEED
Theme By: Nikkbu