[Login] or [Signup]
Login
Username:
Password:
[Signup]
[Recover Account]


Poll


You must be logged in to view polls



Torrent Details For "Fidaa (2018 - Hindi Dubbed) - 1CD - HDRip[x264 - AAC3(5.1Ch)]"

Fidaa (2018 - Hindi Dubbed) - 1CD - HDRip[x264 - AAC3(5.1Ch)]

Download this torrent | Magnet Download
Health:
Seeds: 0
Leechers: 25
Completed: 18 
Last Checked: 09-10-2018 09:12:48
External Torrent
Update Stats
Download Magnet


Poster


iMDB
Title: Fidaa
Year: 2017
Runtime: 144 minutes
Votes: 14
Rating: 9.4/10
Language: Telugu
Country: India
All Genres: Romance
Director: Sekhar Kammula

Cast:
Sai Pallavi as
Varun Tej as


Watch-Free-HD     Download

Details
Name:Fidaa (2018 - Hindi Dubbed) - 1CD - HDRip[x264 - AAC3(5.1Ch)]
Description:
   Fidaa (2018 - Hindi Dubbed) - 1CD -
HDRip[x264 - AAC3(5.1Ch)]    
 






General
Format                                   : Matroska
Format version                           : Version 4
File size                                : 700 MiB
Duration                                 : 2 h 24 min
Overall bit rate                         : 676 kb/s

Video
ID                                       : 1
Format                                   : AVC
Format/Info                              : Advanced Video Codec
Format profile                           : [email protected]
Format settings                          : CABAC / 4 Ref Frames
Format settings, CABAC                   : Yes
Format settings, RefFrames               : 4 frames
Codec ID                                 : V_MPEG4/ISO/AVC
Duration                                 : 2 h 24 min
Bit rate                                 : 546 kb/s
Width                                    : 640 pixels
Height                                   : 272 pixels
Display aspect ratio                     : 2.35:1
Frame rate mode                          : Constant
Frame rate                               : 25.000 FPS
Color space                              : YUV
Chroma subsampling                       : 4:2:0
Bit depth                                : 8 bits
Scan type                                : Progressive
Bits/(Pixel*Frame)                       : 0.125
Stream size                              : 566 MiB (81%)

Audio
ID                                       : 2
Format                                   : AAC LC SBR
Commercial name                          : HE-AAC
Format settings                          : Explicit
Codec ID                                 : A_AAC-2
Duration                                 : 2 h 24 min
Bit rate                                 : 128 kb/s
Channel(s)                               : 6 channels
Channel layout                           : C L R Ls Rs LFE
Sampling rate                            : 48.0 kHz
Stream size                              : 132 MiB (19%)

 Thumbnail  




Category:Movies > Bollywood
Lang:Hindi
Total Size:700.20 MB
Info Hash:c1c63bb9788475a801022791505b62a6cd18279a
Added By:CyberTron
Date Added:06-10-2018 08:46:20
Views:528
Hits:20

Download Torrent

Ratings:Not Yet Rated (Log in to rate it)

  


Tracker:
udp://tracker.trackerfix.com:80/announce


File List: 


Comments

No comments still posted

Powered by 10 Hamsters v2-svn -|- Page Generated In 0.800672 secs.
-|- RSS FEED
Theme By: Nikkbu