[Login] or [Signup]
Login
Username:
Password:
[Signup]
[Recover Account]


Poll


You must be logged in to view polls



Torrent Details For "Saajan Ki Baahon Mein (1995) 720p Untouched Web-HD AVC AAC - Hon3yHD"

Saajan Ki Baahon Mein (1995) 720p Untouched Web-HD AVC AAC - Hon3yHD

Download this torrent | Magnet Download
Health:
Seeds: 0
Leechers: 2
Completed:
Last Checked: 22-10-2018 09:16:16
External Torrent
Update Stats
Download Magnet


Poster


iMDB
Imdb Picture Title: Saajan Ki Baahon Mein
Year: 1995
Votes: 35
Rating: 3.9/10
Language: Hindi
Country: India
All Genres: Drama, Family, Romance
Plot Outline: Sagar is a popular singer, and since he is a bachelor, he is always mobbed by young women wherever he stages his shows. On one such show in Srinagar, he meets with beautiful Sapna Narang, ...
Director: Jay Prakash
Writing By: Sachin Bhowmick,Rumi Jaffery,Jay Prakash,
Produced By: Dinesh B. Patel,
Music: Shravan Rathod Nadeem Saifi Kishore Sharma
Plot:

Sagar is a popular singer, and since he is a bachelor, he is always mobbed by young women wherever he stages his shows. On one such show in Srinagar, he meets with beautiful Sapna Narang, and after a few misunderstandings, both fall in love with each other. But Sapna's dad, Pran, has other plans for her, and wants her to marry someone of his choice. In this way both lovers are separated. Years later both will meet each other, but during this meeting Sagar will be announcing his marriage with Kavita, while Sapna will be engaged to Sagar's childhood friend, Rakesh. It is during this meeting that many truths will surface - which will change their lives forever.

- Written by rAjOo ([email protected])
Cast:
Rishi Kapoor as Sagar
Raveena Tandon as Sapna Narang
Sumeet Saigal as Rakesh Singh
Tabu as Kavita
Prem Chopra as Pyarelal
Saeed Jaffrey as Ranvir Singh
Deven Verma as Dr. Rastogi
Laxmikant Berde as Anand
Anand Balraj as Bonny
Pran as Mr. Narang (Sapna's Father)


Watch-Free-HD     Download

Details
Name:Saajan Ki Baahon Mein (1995) 720p Untouched Web-HD AVC AAC - Hon3yHD
Description:
Saajan Ki Baahon Mein (1995) 720p Untouched Web-HD AVC AAC - Hon3yHD

Format                      : Matroska
File size                   : 2.15 GiB
Duration                    : 2 h 25 min
Overall bit rate            : 2 112 kb/s

Video
ID                          : 1
Format                      : AVC
Format/Info                 : Advanced Video Codec
Format profile              : [email protected]
Format settings, CABAC      : Yes
Format settings, ReFrames   : 4 frames
Codec ID                    : V_MPEG4/ISO/AVC
Duration                    : 2 h 25 min
Bit rate                    : 1 980 kb/s
Nominal bit rate            : 2 500 kb/s
Width                       : 1 280 pixels
Height                      : 720 pixels
Display aspect ratio        : 16:9
Frame rate mode             : Constant
Frame rate                  : 25.000 FPS
Stream size                 : 2.02 GiB (94%)

Audio
ID                          : 2
Format                      : AAC
Format/Info                 : Advanced Audio Codec
Format profile              : LC
Codec ID                    : A_AAC
Duration                    : 2 h 25 min
Bit rate                    : 130 kb/s
Channel(s)                  : 2 channels
Channel positions           : Front: L R
Sampling rate               : 44.1 kHz
Frame rate                  : 43.066 FPS (1024 spf)
Stream size                 : 135 MiB (6%)


                                 
Category:Movies > Bollywood
Lang:Hindi
Total Size:2.15 GB
Info Hash:5476c890db2f08f88a3847ce34ac103f6a95993d
Added By:Hon3y
Date Added:19-04-2017 15:40:18
Views:426
Hits:126

Download Torrent

Ratings:Not Yet Rated (Log in to rate it)


Tracker:
udp://tracker.coppersurfer.tk:6969/announce


File List: 


Comments

No comments still posted

Powered by 10 Hamsters v2-svn -|- Page Generated In 2.657688 secs.
-|- RSS FEED
Theme By: Nikkbu